.
Авторизация | Регистрация
Хочешь лучшие торренты? Добавь свой email!
Добавить

Торрент скачать бесплатно

» » Карточный домик / House of Cards (2015) WEBRip (сезон 3, серии 1-7 из 13) Первый канал (обновляемая) скачать через торрент бесплатно




    Карточный домик / House of Cards (2015) WEBRip (сезон 3, серии 1-7 из 13) Первый канал (обновляемая) скачать через торрент бесплатно

    Опубликовал: Админ | Дата: 5-03-2015, 04:00 | Просмотров: 1011

    Производство: США/Media Rights Capital, Panic Pictures (II), Trigger Street Productions
    Жанр: драма
    Перевод: многоголосый закадровый, профессиональный -Первый канал
    Режиссер: Джон Дэвид Коулз, Такер Гейтс, Джеймс Фоули, Джон Дал

    Актеры
    Кевин Спейси, Робин Райт, Кейт Мара, Кори Столл, Майкл Келли, Сакина Джэффри, Жаклин Джонс, Рюэл Пендлтон, Гилберт Сото, Сандрин Холт и др.

    Описание фильма

    House of Cards - это политическая драма о безнравственном, темном закулисье современного Вашингтона, в котором правят бал жадность, секс, любовь и коррупция. Исследуя власть, амбиции и американский образ жизни, сериал вращается вокруг Фрэнсиса Андервуда, секретаря большинства в Конгрессе. Андервуд политик политиков — виртуозный манипулятор, харизматичный и безжалостный. Он и его столь же амбициозная жена Клэр не остановятся ни перед чем ради успеха.
    Сэмпл
    Дата мировой премьеры: 27.02.2015
    Продолжительность: ~ 00: 58: 00 серия
    Качество видео: WEBRip
    Видеокодек: XviD
    Битрейт видео: ~1161 Kbps
    Размер кадра: 704x352 (2.000)
    Аудио #1 Rus: AC-3, 48.0 KHz, 2 ch, 128 Kbps, CBR - многоголосый закадровый
    Аудио #2 Eng: AC-3, 48.0 KHz, 2 ch, 128 Kbps, CBR - оригинал
    Вид субтитров: отдельным файлом
    Язык субтитров: русский, английский
    Код:

    General
    Complete name : F:СериалраздачаHouse.of.Cards.S03House.of.Cards.S03E01.XviD.1kanal.[qqss44].avi
    Format : AVI
    Format/Info : Audio Video Interleave
    File size : 601 MiB
    Duration : 58mn 41s
    Overall bit rate : 1 431 Kbps
    Writing application : VirtualDubMod 1.5.10.3 |www.virtualdub-fr.org|| (build 2550/release)
    Writing library : VirtualDubMod build 2550/release
    Video
    ID : 0
    Format : MPEG-4 Visual
    Format profile : Advanced Simple@L5
    Format settings, BVOP : Yes
    Format settings, QPel : No
    Format settings, GMC : No warppoints
    Format settings, Matrix : Default (MPEG)
    Codec ID : XVID
    Codec ID/Hint : XviD
    Duration : 58mn 41s
    Bit rate : 1 161 Kbps
    Width : 704 pixels
    Height : 352 pixels
    Display aspect ratio : 2.000
    Frame rate : 23.976 fps
    Color space : YUV
    Chroma subsampling : 4:2:0
    Bit depth : 8 bits
    Scan type : Progressive
    Bits/(Pixel*Frame) : 0.195
    Stream size : 487 MiB (81%)
    Writing library : XviD 73
    Audio #1
    ID : 1
    Format : AC-3
    Format/Info : Audio Coding 3
    Mode extension : CM (complete main)
    Codec ID : 2000
    Duration : 58mn 37s
    Bit rate mode : Constant
    Bit rate : 128 Kbps
    Channel(s) : 2 channels
    Channel positions : Front: L R
    Sampling rate : 48.0 KHz
    Bit depth : 16 bits
    Stream size : 53.7 MiB (9%)
    Alignment : Split accross interleaves
    Interleave, duration : 42 ms (1.00 video frame)
    Interleave, preload duration : 500 ms
    Audio #2
    ID : 2
    Format : AC-3
    Format/Info : Audio Coding 3
    Mode extension : CM (complete main)
    Codec ID : 2000
    Duration : 58mn 37s
    Bit rate mode : Constant
    Bit rate : 128 Kbps
    Channel(s) : 2 channels
    Channel positions : Front: L R
    Sampling rate : 48.0 KHz
    Bit depth : 16 bits
    Stream size : 53.7 MiB (9%)
    Alignment : Split accross interleaves
    Interleave, duration : 42 ms (1.00 video frame)
    Interleave, preload duration : 500 ms


    Скриншоты для ознакомления




    Карточный домик/House of Cards (2015) WEBRip (сезон 3, серии 1-7 из 13) Первый канал (обновляемая)
    загрузка...
    Рейтинг →
     (голосов: 1, оценка 3/5, голосовать можно 1 раз )

    Другие торренты по теме:

  • Карточный домик / House of Cards (2013) BDRip [H.264 / 720p-LQ] (Сезон 1, серии 1-13 из 13) (Первый)
  • В теме. Карточный домик (2015) SATRip скачать через торрент бесплатно
  • Карточный Домик / House of Cards (2013-2015) HDRip (сезон 1-3, серии 1-39 из 39) Первый канал скачать через торрент бесплатно
  • Карточный домик / House of Cards (2016) WEBRip (сезон 4, серии 1 из 13) Первый канал (обновляемая)
  • Карточный домик / House of Cards (2016) WEBRip [H.264 / 720p-LQ] (сезон 4, серии 1 из 13) Первый канал (обновляемая)
  • Карточный домик / House of Cards (2016) HDTVRip [H.264 / 1080p-LQ] (сезон 4, серии 1-13 из 13) Первый канал
  • Карточный Домик / House of Cards (2013-2016) WEB-DL 720p [H.264] (сезон 1-4, серии 1-52 из 52) (Первый Канал) [MP4] [Rus / Eng Sub]
  • Майкл Доббс | Карточный домик (2016) [FB2]


    • Комментарии (0):

      Информация

      Информация

        Посетители, находящиеся в группе Гости, не могут оставлять комментарии в данной новости.

        ↓ Меню




        ↓ Опрос

        Вы добавили сайт в закладки?
        Да
        Нет


        Top 10 за месяц (Фильмы)