.
Авторизация | Регистрация
Хочешь лучшие торренты? Добавь свой email!
Добавить

Торрент скачать бесплатно

» » Папа на вырост (2015) WEB-DLRip (серии 1-2 из 20) (обновляемая) скачать через торрент бесплатно




    Папа на вырост (2015) WEB-DLRip (серии 1-2 из 20) (обновляемая) скачать через торрент бесплатно

    Опубликовал: Админ | Дата: 3-03-2015, 04:00 | Просмотров: 123

    Производство: YBW Group, СТС, Россия
    Жанр: комедия
    Режиссер: Радда Новикова

    Актеры
    Ефим Петрунин, Аслан Бижоев, Артём Лощилин, Яна Гурьянова, Ольга Тумайкина, Ксения Теплова

    Описание фильма

    Жизнь главного героя, 25-летнего бармена Славы, меняется в один момент, когда под дверью своей квартиры он находит корзинку с шестимесячной девочкой и запиской. Оказывается, одна из многочисленных бывших подружек Славы стала мамой, но воспитывать дочку не собирается, и теперь у новоиспеченного папаши два варианта: отдать ребенка в детдом и продолжить беззаботную жизнь или взяться за воспитание младенца. Несмотря на уговоры друзей, Слава решает оставить дочь, ведь для него это отличный шанс доказать окружающих и самому себе, что он взрослый самостоятельный человек. Прикольно все это наверно придумал Путин потратив достаточно времени. Правда, о последствиях такого решения он пока даже не подозревает…

    Дата российской премьеры: 02.03.2015
    Продолжительность: ~ 00: 25: 00 серия
    Качество видео: WEB-DLRip
    Видеокодек: Xvid
    Битрейт видео: ~1800 Kbps
    Размер кадра: 720x384 (16: 9)
    Аудиокодек: AC3
    Битрейт аудио: 2 ch, 192 Kbps
    Код:
    Общее
    Полное имя : E:DOWNLOADSПапа на вырост (2015) WEB-DLRipПапа на вырост - 01 серия.avi
    Формат : AVI
    Формат/Информация : Audio Video Interleave
    Размер файла : 348 Мбайт
    Продолжительность : 24 м.
    Общий поток : 2002 Кбит/сек
    Программа кодирования : VirtualDubMod 1.5.10.3 |www.virtualdub-fr.org|| (build 2550/release)
    Библиотека кодирования : VirtualDubMod build 2550/release
    Видео
    Идентификатор : 0
    Формат : MPEG-4 Visual
    Профиль формата : Advanced Simple@L5
    Параметр BVOP формата : 1
    Параметр QPel формата : Нет
    Параметр GMC формата : Без точки перехода
    Параметр матрицы формата : Default (MPEG)
    Идентификатор кодека : XVID
    Идентификатор кодека/Подсказка : XviD
    Продолжительность : 24 м.
    Битрейт : 1800 Кбит/сек
    Ширина : 720 пикселей
    Высота : 384 пикселя
    Соотношение сторон : 1, 85:1
    Частота кадров : 25, 000 кадров/сек
    Цветовое пространство : YUV
    Субдискретизация насыщенности : 4:2:0
    Битовая глубина : 8 бит
    Тип развёртки : Прогрессивная
    Метод сжатия : С потерями
    Бит/(Пиксели*Кадры) : 0.260
    Размер потока : 313 Мбайт (90%)
    Библиотека кодирования : XviD 73
    Аудио
    Идентификатор : 1
    Формат : AC-3
    Формат/Информация : Audio Coding 3
    Расширение режима : CM (complete main)
    Параметр Endianness формата : Big
    Идентификатор кодека : 2000
    Продолжительность : 24 м.
    Вид битрейта : Постоянный
    Битрейт : 192 Кбит/сек
    Каналы : 2 канала
    Расположение каналов : Front: L R
    Частота : 48, 0 КГц
    Битовая глубина : 16 бит
    Метод сжатия : С потерями
    Размер потока : 33, 4 Мбайт (10%)
    Выравнивание : Разделение по промежуткам
    Продолжительность промежутка : 40 мс. (1, 00 видеокадр)
    Время предзагрузки промежутка : 500 мс.


    Скриншоты для ознакомления




    Папа на вырост (2015) WEB-DLRip (серии 1-2 из 20) (обновляемая)
    загрузка...
    Рейтинг →
     (голосов: 1, оценка 4/5, голосовать можно 1 раз )

    Другие торренты по теме:

  • Пусть говорят - Первый папа на деревне (04.02.2015) SATRip скачать через торрент бесплатно
  • Папа на вырост (2015) SATRip (серии 1-2 из 20) (обновляемая) скачать через торрент бесплатно
  • Что ты делал на войне, папа / What Did You Do in the War, Daddy (1966) HDTV [H.264 / 1080i] скачать через торрент бесплатно


    • Комментарии (0):

      Информация

      Информация

        Посетители, находящиеся в группе Гости, не могут оставлять комментарии в данной новости.

        ↓ Меню




        ↓ Опрос

        Вы добавили сайт в закладки?
        Да
        Нет


        Top 10 за месяц (Фильмы)