.
Авторизация | Регистрация
Хочешь лучшие торренты? Добавь свой email!
Добавить

Торрент скачать бесплатно

» » Фортитьюд / Fortitude (2015) WEB-DLRip (сезон 1, серии 1-2 из 12) AlexFilm (обновляемая)скачать через торрент бесплатно




    Фортитьюд / Fortitude (2015) WEB-DLRip (сезон 1, серии 1-2 из 12) AlexFilm (обновляемая)скачать через торрент бесплатно

    Опубликовал: Админ | Дата: 28-02-2015, 04:00 | Просмотров: 140

    Производство: Великобритания
    Жанр: триллер, драма, детектив
    Перевод: Многоголосый закадровый, профессиональный -AlexFilm

    Автор перевода: Константин Кривоногов
    Озвучка: Татьяна Манентина, Михаил Суслов, Владимир Курдов, Сергей Пономарёв
    Монтаж и сведение звука: Михаил Шорыгин
    Сэмпл
    Дата мировой премьеры: 29 января 2015
    Режиссер: Сэм Миллер, Ричард Лэкстон, Хетти Макдональд, Ник Харран

    Актеры
    Кристофер Экклстон, Майкл Гэмбон, Ричард Дормер, Стэнли Туччи, Софи Гробёль, Николас Пиннок, Джессика Рэйн, Вероника Эчеги, Люк Тредэвэй, Сиенна Гиллори, Джонни Харрис, Даррен Бойд, Миа Ексен, Александра Моэн, Бьерн Хлинур Харальдссон, Аарон Маккаскер, Майкл Обиора, Эмиль Хостина, Чипо Чанг и др.

    Описание фильма

    Очередное убийство в сонном городке — на этот раз на краю Арктики. Детектив Мортон прибывает в полярный Фортитьюд, чтобы расследовать волну загадочных преступлений в живописном и некогда тихом местечке.
    Продолжительность: ~00: 47: 00 серия
    Качество видео: WEB-DLRip
    Видеокодек: XviD
    Формат: AVI
    Битрейт видео: ~1400 kb/s
    Размер кадра: 720х400 (16: 9)
    Аудио Rus: (AC-3, 48, 0 kHz, 2 ch, 192 kb/s) - многоголосый закадровый
    Аудио Eng: (AC-3, 48, 0 kHz, 2 ch, 192 kb/s) - оригинал
    Общее
    Полное имя : D: Фортитьюд (сезон любимого сериала 1) Fortitude (2015) WEB-DLRip - AlexFilmFortitude.s01e01.WEB-DLRip.Rus.Eng.AlexFilm.avi
    Формат : AVI
    Формат/Информация : Audio Video Interleave
    Размер файла : 616 Мбайт
    Продолжительность : 47 м.
    Общий поток : 1800 Кбит/сек
    Название фильма : Fortitude 1x01 @ AlexFilm
    Программа кодирования : VirtualDubMod 1.5.10.2 (build 2542/release)
    Видео
    Идентификатор : 0
    Формат : MPEG-4 Visual
    Профиль формата : Advanced Simple@L5
    Параметр BVOP формата : 1
    Параметр QPel формата : Нет
    Параметр GMC формата : Без точки перехода
    Параметр матрицы формата : Default (MPEG)
    Идентификатор кодека : XVID
    Идентификатор кодека/Подсказка : XviD
    Продолжительность : 47 м.
    Битрейт : 1402 Кбит/сек
    Ширина : 720 пикселей
    Высота : 400 пикселей
    Соотношение сторон : 16: 9
    Частота кадров : 25, 000 кадров/сек
    Цветовое пространство : YUV
    Субдискретизация насыщенности : 4: 2: 0
    Битовая глубина : 8 бит
    Тип развёртки : Прогрессивная
    Метод сжатия : С потерями
    Бит/(Пиксели*Кадры) : 0.195
    Размер потока : 480 Мбайт (78%)
    Библиотека кодирования : XviD 1.2.1 (UTC 2008-12-04)
    Аудио #1
    Идентификатор : 1
    Формат : AC-3
    Формат/Информация : Audio Coding 3
    Расширение режима : CM (complete main)
    Параметр Endianness формата : Big
    Идентификатор кодека : 2000
    Продолжительность : 47 м.
    Вид битрейта : Постоянный
    Битрейт : 192 Кбит/сек
    Каналы : 2 канала
    Расположение каналов : Front: L R
    Частота : 48, 0 КГц
    Битовая глубина : 16 бит
    Метод сжатия : С потерями
    Размер потока : 65, 7 Мбайт (11%)
    Выравнивание : Разделение по промежуткам
    Продолжительность промежутка : 40 мс. (1, 00 видеокадр)
    Время предзагрузки промежутка : 500 мс.
    Заголовок : Russian (AlexFilm)
    Аудио #2
    Идентификатор : 2
    Формат : AC-3
    Формат/Информация : Audio Coding 3
    Расширение режима : CM (complete main)
    Параметр Endianness формата : Big
    Идентификатор кодека : 2000
    Продолжительность : 47 м.
    Вид битрейта : Постоянный
    Битрейт : 192 Кбит/сек
    Каналы : 2 канала
    Расположение каналов : Front: L R
    Частота : 48, 0 КГц
    Битовая глубина : 16 бит
    Метод сжатия : С потерями
    Размер потока : 65, 7 Мбайт (11%)
    Выравнивание : Разделение по промежуткам
    Продолжительность промежутка : 40 мс. О таком странном сюжете не догадывалась даже Бейонсе. (1, 00 видеокадр)
    Время предзагрузки промежутка : 500 мс.
    Заголовок : English


    Скриншоты для ознакомления




    Фортитьюд/Fortitude (2015) WEB-DLRip (сезон 1, серии 1-2 из 12) AlexFilm (обновляемая)
    загрузка...
    Рейтинг →
     (голосов: 1, оценка 3/5, голосовать можно 1 раз )

    Другие торренты по теме:

  • Фортитьюд / Fortitude (2015) WEB-DLRip, HDTVRip (сезон 1, серия 01-02 из 12) Victory-Films (обновляемая)
  • Фортитьюд / Fortitude (2015) WEB-DLRip / HDTVRip (сезон 1, серия 01-09, 12 из 12) Victory-Films (обновляемая) скачать через торрент бесплатно
  • Фортитьюд / Fortitude (2017) HDTVRip (сезон 2, серии 1 из 10) AlexFilm (обновляемая)
  • Фортитьюд / Fortitude (2017) WEBRip [H.264 / 720p-LQ] (сезон 2, серии 1-2 из 10) Victory-Films (обновляемая)
  • Фортитьюд / Fortitude (2017) HDTVRip [H.264 / 720p-LQ] (сезон 2, серии 1-10 из 10) AMS [AD]
  • Фортитьюд / Fortitude (2015-2017) WEB-DL [H.264 / 720p-LQ] (сезоны 1-2, серии 1-22 из 22) Русский репортаж


    • Комментарии (0):

      Информация

      Информация

        Посетители, находящиеся в группе Гости, не могут оставлять комментарии в данной новости.

        ↓ Меню




        ↓ Опрос

        Вы добавили сайт в закладки?
        Да
        Нет


        Top 10 за месяц (Фильмы)