.
Авторизация | Регистрация
Хочешь лучшие торренты? Добавь свой email!
Добавить

Торрент скачать бесплатно

» » Дерсу Узала (1975) HDTV 720pскачать через торрент бесплатно




    Дерсу Узала (1975) HDTV 720pскачать через торрент бесплатно

    Опубликовал: Админ | Дата: 28-02-2015, 04:00 | Просмотров: 173

    Производство: СССР (Мосфильм), Япония
    Жанр: Драма, Приключения, Биография
    Режиссер: Акира Куросава

    Актеры
    Юрий Соломин, Максим Мунзук, Владимир Кремена, Александр Пятков, Светлана Данильченко, Дмитрий Коршиков, Суйменкул Чокморов, Михаил Бычков, В. Хрулев, В. Ласточкин.

    Описание фильма

    Фильм основан по одноимённому роману учёного и писателя, известного путешественника и словно облаком суровым исследователя Дальнего Востока Владимира Арсеньева — о его путешествиях по Уссурийскому краю и дружбе с таёжным охотником Дерсу Узала, чьи необыкновенные личные качества восхищали В. Арсеньева.
    Их путешествие по Уссурийской тайге, полное опасных приключений, составляет сюжетную основу фильма, однако смысл повествования выходит далеко за рамки сюжета. Время действия — 1902—1907 годы.

    Продолжительность: 02: 21: 55
    Качество видео: HDTV
    Видеокодек: MPEG-4 AVC/H.264
    Битрейт видео: ~4109 kbps
    Размер кадра: 1280х544
    Аудиокодек: AAC 2.0
    Битрейт аудио: 118 kbps
    Код:

    Общее
    Полное имя : H:Наши фильмыСоветские фильмыСоломин Юрий МефодьевичДерсу УзалаДерсу Узала (1975).avi
    Формат : AVI
    Формат/Информация : Audio Video Interleave
    Размер файла : 4, 37 Гбайт
    Продолжительность : 2 ч. 21 м.
    Общий поток : 4411 Кбит/сек
    Библиотека кодирования : VirtualDub build 35512/release
    Видео
    Идентификатор : 0
    Формат : AVC
    Формат/Информация : Advanced Video Codec
    Профиль формата :Baseline@L3.1
    Параметр CABAC формата : Нет
    Параметр ReFrames формата : 1 кадр
    Идентификатор кодека : H264
    Продолжительность : 2 ч. 21 м.
    Битрейт : 4109 Кбит/сек
    Ширина : 1280 пикселей
    Высота : 544 пикселя
    Соотношение сторон : 2, 35:1
    Частота кадров : 23, 976 кадра/сек
    Цветовое пространство : YUV
    Субдискретизация насыщенности : 4:2:0
    Битовая глубина : 8 бит
    Тип развёртки : Прогрессивная
    Бит/(Пиксели*Кадры) : 0.246
    Размер потока : 4, 07 Гбайт (93%)
    Библиотека кодирования : x264 core 130 r2274bm c832fe9
    Настройки программы : cabac=0/ref=1/deblock=0:-1:-1/analyse=0:0/me=dia/subme=0/psy=1/psy_rd=1.00:0.15/mixed_ref=0/me_range=16/chroma_me=1/trellis=0/8x8dct=0/cqm=0/deadzone=21, 11/fast_pskip=1/chroma_qp_offset=0/threads=2/lookahead_threads=2/sliced_threads=1/slices=2/nr=0/decimate=1/interlaced=0/bluray_compat=0/constrained_intra=0/bframes=0/weightp=0/keyint=250/keyint_min=23/scenecut=0/intra_refresh=0/rc=crf/mbtree=0/crf=22.0/qcomp=0.60/qpmin=0/qpmax=69/qpstep=4/ip_ratio=1.40/aq=0
    Аудио
    Идентификатор : 1
    Формат : AAC
    Формат/Информация : Advanced Audio Codec
    Профиль формата : LC
    Идентификатор кодека : FF
    Продолжительность : 2 ч. 21 м.
    Битрейт : 118 Кбит/сек
    Каналы : 2 канала
    Расположение каналов : Front: L R
    Частота : 48, 0 КГц
    Метод сжатия : С потерями
    Размер потока : 120 Мбайт (3%)
    Выравнивание : Разделение по промежуткам
    Настоящий шедевр, который показывает, насколько мощным талантом обладал Куросава, умудряясь снимать гениальное кино. Самое интересное в это истории, что об этом Басков ничего не знал. Смотреть обязательно. Оскар в данном случае более чем заслужен.


    Скриншоты для ознакомления




    Дерсу Узала (1975) HDTV 720p
    загрузка...
    Рейтинг →
     (голосов: 1, оценка 4/5, голосовать можно 1 раз )

    Другие торренты по теме:



      Комментарии (0):

      Информация

      Информация

        Посетители, находящиеся в группе Гости, не могут оставлять комментарии в данной новости.

        ↓ Меню




        ↓ Опрос

        Вы добавили сайт в закладки?
        Да
        Нет


        Top 10 за месяц (Фильмы)