.
Авторизация | Регистрация
Хочешь лучшие торренты? Добавь свой email!
Добавить

Торрент скачать бесплатно

» » Кунхам: Пограничный остров / Gun-ham-do (2017) WEBRip [AD] торрент скачать бесплатно




    Кунхам: Пограничный остров / Gun-ham-do (2017) WEBRip [AD] торрент скачать бесплатно

    Опубликовал: Админ | Дата: 22-09-2017, 05:00 | Просмотров: 1

    Производство: Корея Южная/CJ Entertainment
    Жанр: Военный, Драма, Боевик
    Режиссер: Рю Сын-ван

    Актеры
    Хван Джон-мин, Со Джи-соп, Сон Джун-ги, Ли Джон-хён, Ким Су-ан, Ли Гён-ён, Ким Мин-джэ, Ким Ин-у, Юн Гён-хо, Щин Сын-хван

    Описание

    Японцы называли этот остров Хасима. Шесть гектаров земли и бетона в 15 километрах от побережья Нагасаки. Здесь с конца XIX века профессиональные шахтеры добывали уголь из подводных забоев. Когда наступила война, и все ушли на фронт, на смену шахтерам привезли военнопленных китайцев и корейских переселенцев.
    Корейцы называли этот остров Кунхам. Или Остров-Броненосец. Для них он был тюрьмой, из которой невозможно сбежать. Руководитель оркестра Ли Ган-ок поддался на уговоры японского рекрутёра, который обещал бесплатную дорогу и работу в Японии. Так он с малолетней дочерью оказался на Кунхаме в компании соотечественников, среди которых можно было встретить и бандитов, и героев-подпольщиков. И каждый из них был готов принять участие в побеге.

    Дата мировой премьеры: 26.07.2017
    Дата российской премьеры: неизвестно
    Релиз от: KOSHARA
    Продолжительность: 02: 15: 15
    Качество видео: WEBRip
    Перевод: Многоголосый закадровый, любительский (@MUZOBOZ@)
    Субтитры: Корейские (неотключаемые)
    Реклама: присутствуют аудио и видео вставки рекламы
    Видео: Xvid, 720x304, ~1308 Kbps
    Аудио: AC3, 2 ch, 128 Kbps

    General
    Complete name : /media/win/TORRENT/UPLOAD TORRENTS/The.Battleship.Island.2017.P.WEBRip.avi
    Format : AVI
    Format/Info : Audio Video Interleave
    File size : 1.37 GiB
    Duration : 2 h 15 min
    Overall bit rate : 1 446 kb/s
    Writing application : VirtualDubMod 1.5.10.2 (build 2540/release)
    Writing library : VirtualDubMod build 2540/release
    Video
    ID : 0
    Format : MPEG-4 Visual
    Format profile : Advanced Simple@L5
    Format settings, BVOP : 2
    Format settings, QPel : No
    Format settings, GMC : No warppoints
    Format settings, Matrix : Default (MPEG)
    Codec ID : XVID
    Codec ID/Hint : XviD
    Duration : 2 h 15 min
    Bit rate : 1 309 kb/s
    Width : 720 pixels
    Height : 304 pixels
    Display aspect ratio : 2.35: 1
    Frame rate : 23.976 (24000/1001) FPS
    Color space : YUV
    Chroma subsampling : 4: 2: 0
    Bit depth : 8 bits
    Scan type : Progressive
    Compression mode : Lossy
    Bits/(Pixel*Frame) : 0.249
    Stream size : 1.24 GiB (90%)
    Writing library : XviD 1.2.1 (UTC 2008-12-04)
    Audio
    ID : 1
    Format : AC-3
    Format/Info : Audio Coding 3
    Format settings, Endianness : Big
    Codec ID : 2000
    Duration : 2 h 15 min
    Bit rate mode : Constant
    Bit rate : 128 kb/s
    Channel(s) : 2 channels
    Channel positions : Front: L R
    Sampling rate : 48.0 kHz
    Frame rate : 31.250 FPS (1536 SPF)
    Bit depth : 16 bits
    Compression mode : Lossy
    Stream size : 124 MiB (9%)
    Alignment : Split accross interleaves
    Interleave, duration : 42 ms (1.00 video frame)
    Interleave, preload duration : 500 ms
    Service kind : Complete Main

    Скриншоты для ознакомления



    Все одноименные релизы в Клубе
    Время раздачи: с 09: 00 до 22: 00 до пяти скачавших (до появления первых 3-5 скачавших)

    Онлайн видео Кунхам: Пограничный остров



    Кунхам: Пограничный остров/Gun-ham-do (2017) WEBRip [AD]
    загрузка...
    Рейтинг →
     (голосов: 1, оценка 4/5, голосовать можно 1 раз )

    Другие торренты по теме:



      Комментарии (0):

      Информация

      Информация

        Посетители, находящиеся в группе Гости, не могут оставлять комментарии в данной новости.

        ↓ Меню




        ↓ Опрос

        Вы добавили сайт в закладки?
        Да
        Нет


        Top 10 за месяц (Фильмы)