.
Авторизация | Регистрация
Хочешь лучшие торренты? Добавь свой email!
Добавить

Торрент скачать бесплатно

» » Час оружия / Hour of the Gun (1967) DVDRip [H.264] торрент скачать бесплатно




    Час оружия / Hour of the Gun (1967) DVDRip [H.264] торрент скачать бесплатно

    Опубликовал: Админ | Дата: 20-09-2017, 05:00 | Просмотров: 0

    Производство: США/Mirisch-Kappa Production, The Mirisch Corporation
    Жанр: Вестерн
    Режиссер: Джон Стёрджес
    Продюсер: Джон Стёрджес

    Актеры
    Джеймс Гарнер, Джейсон Робардс, Роберт Райан, Альберт Сэлми, Чарльз Эйдмен, Стив Инат, Майкл Толан, Уильям Уиндом, Лонни Чэпмен, Ларри Гейтс

    Описание

    В результате очередной перестрелки шериф Уайт Эрп убивает нескольких людей из банды Клэнтона. После того, как бандиты в отместку убивают брата Эрпа, он вместе со своим другом Доком Холлидеем отправляется на поиски убийц.

    Релиз от: Охрана (NNMCLUB)
    Продолжительность: 01: 41: 27
    Качество видео: DVDRip
    Перевод: Многоголосый закадровый (Петербург 5-й канал)
    Субтитры: Английские
    Видео: AVC/H.264, 720x304, ~1850 Kbps
    Аудио 1: Русский, AC3, 2 ch, 192 Kbps, 48.0 kHz
    Аудио 2: Английский, AC3, 2 ch, 192 Kbps, 48.0 kHz

    General
    Unique ID : 212627966515301258128691623865761197022 (0x9FF6A8223FBF8D4FBB3A02146920EBDE)
    Complete name : F: DownloadsЧас оружия. 1967. NNMCLUB.mkv
    Format : Matroska
    Format version : Version 4/Version 2
    File size : 1.58 GiB
    Duration : 1h 41mn
    Overall bit rate : 2 236 Kbps
    Encoded date : UTC 2017-09-17 13: 38: 15
    Writing application : mkvmerge v7.0.0 (\'Where We Going\') 32bit built on Jun 9 2014 15: 08: 34
    Writing library : libebml v1.3.0 + libmatroska v1.4.1
    DURATION : 01: 36: 41.422000000
    NUMBER_OF_FRAMES : 1045
    NUMBER_OF_BYTES : 38468
    _STATISTICS_WRITING_APP : mkvmerge v7.0.0 (\'Where We Going\') 32bit built on Jun 9 2014 15: 08: 34
    _STATISTICS_WRITING_DATE_UTC : 2017-09-17 13: 38: 15
    _STATISTICS_TAGS : BPS DURATION NUMBER_OF_FRAMES NUMBER_OF_BYTES
    Video
    ID : 1
    Format : AVC
    Format/Info : Advanced Video Codec
    Format profile : High@L4.1
    Format settings, CABAC : Yes
    Format settings, ReFrames : 12 frames
    Codec ID : V_MPEG4/ISO/AVC
    Duration : 1h 41mn
    Bit rate : 1 850 Kbps
    Width : 720 pixels
    Height : 304 pixels
    Display aspect ratio : 2.35: 1
    Frame rate mode : Constant
    Frame rate : 23.976 fps
    Color space : YUV
    Chroma subsampling : 4: 2: 0
    Bit depth : 8 bits
    Scan type : Progressive
    Bits/(Pixel*Frame) : 0.353
    Stream size : 1.28 GiB (81%)
    Title : Hour of the Gun
    Writing library : x264 core 125 r2208 d9d2288
    Encoding settings : cabac=1/ref=12/deblock=1: -1: -1/analyse=0x3: 0x133/me=umh/subme=10/psy=1/psy_rd=1.00: 0.10/mixed_ref=1/me_range=32/chroma_me=1/trellis=2/8x8dct=1/cqm=0/deadzone=21, 11/fast_pskip=0/chroma_qp_offset=-3/threads=6/lookahead_threads=1/sliced_threads=0/nr=0/decimate=0/interlaced=0/bluray_compat=0/constrained_intra=0/bframes=7/b_pyramid=2/b_adapt=2/b_bias=0/direct=3/weightb=1/open_gop=0/weightp=2/keyint=250/keyint_min=25/scenecut=40/intra_refresh=0/rc_lookahead=60/rc=2pass/mbtree=1/bitrate=1850/ratetol=1.0/qcomp=0.60/qpmin=0/qpmax=69/qpstep=4/cplxblur=20.0/qblur=0.5/ip_ratio=1.40/aq=1: 1.00
    Language : English
    Default : Yes
    Forced : No
    Audio #1
    ID : 2
    Format : AC-3
    Format/Info : Audio Coding 3
    Mode extension : CM (complete main)
    Format settings, Endianness : Big
    Codec ID : A_AC3
    Duration : 1h 41mn
    Bit rate mode : Constant
    Bit rate : 192 Kbps
    Channel(s) : 2 channels
    Channel positions : Front: L R
    Sampling rate : 48.0 KHz
    Bit depth : 16 bits
    Compression mode : Lossy
    Stream size : 139 MiB (9%)
    Title : Многоголосый закадровый
    Language : Russian
    Default : Yes
    Forced : No
    Audio #2
    ID : 3
    Format : AC-3
    Format/Info : Audio Coding 3
    Mode extension : CM (complete main)
    Format settings, Endianness : Big
    Codec ID : A_AC3
    Duration : 1h 41mn
    Bit rate mode : Constant
    Bit rate : 192 Kbps
    Channel(s) : 2 channels
    Channel positions : Front: L R
    Sampling rate : 48.0 KHz
    Bit depth : 16 bits
    Compression mode : Lossy
    Stream size : 139 MiB (9%)
    Title : Оригинал
    Language : English
    Default : No
    Forced : No
    Text
    ID : 4
    Format : UTF-8
    Codec ID : S_TEXT/UTF8
    Codec ID/Info : UTF-8 Plain Text
    Title : SRT
    Language : English
    Default : No
    Forced : No

    Скриншоты для ознакомления




    Все одноименные релизы в Клубе
    Время раздачи: с 13: 00 до 01: 00 МСК, выходные круглосуточно (до появления первых 3-5 скачавших)

    Онлайн видео Час оружия



    Час оружия/Hour of the Gun (1967) DVDRip [H.264]
    загрузка...
    Рейтинг →
     (голосов: 1, оценка 3/5, голосовать можно 1 раз )

    Другие торренты по теме:

  • А.А.Королев, В.А.Комочков (ред.) | Баллистика ракетного и ствольного оружия (2010) [PDF]
  • Ударная сила: Необычные виды оружия (2008) DVD9
  • Виктор Волков | Курс самозащиты без оружия "Самбо" (1940) [FB2, EPUB] скачать через торрент бесплатно
  • День злого оружия / Day of the Evil Gun (1968) DVDRip [H.264] [AVO] скачать через торрент бесплатно
  • Иван Солоневич | Самооборона и нападение без оружия (1928) [FB2] скачать через торрент бесплатно
  • Путь оружия / The Way of the Gun (2000) BDRip [H.264 / 1080p] скачать через торрент бесплатно
  • История оружия / The Story of the Gun (1996) IPTVRip (серии 1-4 из 4) скачать через торрент бесплатно
  • В. И. Романов | Опасности химического оружия России (2004) [DJVU] скачать через торрент бесплатно


    • Комментарии (0):

      Информация

      Информация

        Посетители, находящиеся в группе Гости, не могут оставлять комментарии в данной новости.

        ↓ Меню




        ↓ Опрос

        Вы добавили сайт в закладки?
        Да
        Нет


        Top 10 за месяц (Фильмы)