.
Авторизация | Регистрация
Хочешь лучшие торренты? Добавь свой email!
Добавить

Торрент скачать бесплатно

» » Люблю тебя любую (2017) WEB-DLRip [H.264 / 720p-LQ] (серии 1-2 из 2) торрент скачать бесплатно




    Люблю тебя любую (2017) WEB-DLRip [H.264 / 720p-LQ] (серии 1-2 из 2) торрент скачать бесплатно

    Опубликовал: Админ | Дата: 11-09-2017, 05:00 | Просмотров: 0

    Производство: Россия
    Жанр: мелодрама
    Режиссер: Юрий Купавых

    Актеры
    Константин Стрельников, Юлия Галкина, Вахтанг Беридзе, Дарья Егорова, Виктория Герасимова, Сергей Фатьянов, Антон Аносов, Руслана Рухадзе, Вера Смолина, Светлана Брыксина и др.

    Описание

    Сёстры, Наталья и Лариса, любительницы спорить. В одном из споров ставкой становится половина магазина, принадлежащего обеим сестрам. О таком странном сюжете не догадывалась даже Анастасия Стоцкая. А предметом спора — убежденность Натальи в своем умении выдрессировать любого мужчину. Мужчиной, который должен пригласить Наталью замуж, по воле Ларисы становится обыкновенный дворник Николай. Лариса точно знает, что сестра ненавидит Николая с первого взгляда…

    Возраст: 12+ (зрителям, достигшим 12 лет)
    Дата российской премьеры: 8 сентября 2017
    Релиз от: Алехаndr
    Продолжительность: ~00: 45: 00 серия
    Качество видео: WEB-DLRip
    Видео: AVC/H.264, 1280x720 (16: 9), ~2569 Kbps
    Аудио: AC3, 2 ch, 192 Kbps

    Общее
    Уникальный идентификатор : 247165284192404343775951274871515867155 (0xB9F24D5D3C5431799CBE33E2BC916813)
    Полное имя : D: Люблю тебя любую (2017).by.АлехаndrСерия 1.by.Алехаndr.mkv
    Формат : Matroska
    Версия формата : Version 4/Version 2
    Размер файла : 899 Мбайт
    Продолжительность : 46 м. 6 с.
    Общий поток : 2726 Кбит/сек
    Дата кодирования : UTC 2017-09-10 09: 54: 10
    Программа кодирования : mkvmerge v15.0.0 (\'Duel with the Devil\') 64-bit
    Библиотека кодирования : libebml v1.3.5 + libmatroska v1.4.5/Lavf57.71.100
    Видео
    Идентификатор : 1
    Формат : AVC
    Формат/Информация : Advanced Video Codec
    Профиль формата : High@L3.1
    Параметр CABAC формата : Да
    Параметр RefFrames формата : 4 кадра
    Идентификатор кодека : V_MPEG4/ISO/AVC
    Продолжительность : 46 м. 5 с.
    Битрейт : 2569 Кбит/сек
    Ширина : 1280 пикселей
    Высота : 720 пикселей
    Соотношение сторон : 16: 9
    Режим частоты кадров : Постоянный
    Частота кадров : 25, 000 кадров/сек
    Цветовое пространство : YUV
    Субдискретизация насыщенности : 4: 2: 0
    Битовая глубина : 8 бит
    Тип развёртки : Прогрессивная
    Бит/(Пиксели*Кадры) : 0.112
    Размер потока : 835 Мбайт (93%)
    Библиотека кодирования : x264 core 146 r2555 0c21480
    Настройки программы : cabac=1/ref=3/deblock=1: 0: 0/analyse=0x3: 0x133/me=hex/subme=7/psy=1/psy_rd=1.00: 0.00/mixed_ref=1/me_range=16/chroma_me=1/trellis=1/8x8dct=1/cqm=0/deadzone=21, 11/fast_pskip=1/chroma_qp_offset=-2/threads=3/lookahead_threads=1/sliced_threads=0/nr=0/decimate=1/interlaced=0/bluray_compat=0/constrained_intra=0/bframes=3/b_pyramid=2/b_adapt=1/b_bias=0/direct=1/weightb=1/open_gop=0/weightp=2/keyint=250/keyint_min=25/scenecut=40/intra_refresh=0/rc_lookahead=40/rc=abr/mbtree=1/bitrate=2569/ratetol=1.0/qcomp=0.60/qpmin=10/qpmax=51/qpstep=4/ip_ratio=1.40/aq=1: 1.00
    Default : Да
    Forced : Нет
    Аудио
    Идентификатор : 2
    Формат : AC-3
    Формат/Информация : Audio Coding 3
    Параметр Endianness формата : Big
    Идентификатор кодека : A_AC3
    Продолжительность : 46 м. 6 с.
    Вид битрейта : Постоянный
    Битрейт : 192 Кбит/сек
    Каналы : 2 канала
    Расположение каналов : Front: L R
    Частота : 48, 0 КГц
    Частота кадров : 31, 250 кадров/сек (1536 SPF)
    Битовая глубина : 16 бит
    Метод сжатия : С потерями
    Задержка видео : -360 мс.
    Размер потока : 63, 3 Мбайт (7%)
    ServiceKind/String : Complete Main
    Default : Да
    Forced : Нет

    Скриншоты для ознакомления



    Все одноименные релизы в Клубе
    Время раздачи: 24/7 (круглосуточно) (до появления первых 3-5 скачавших)

    Онлайн видео Люблю тебя любую (2017) WEB-DLRip [H.264



    Люблю тебя любую (2017) WEB-DLRip [H.264/720p-LQ] (серии 1-2 из 2)
    загрузка...
    Рейтинг →
     (голосов: 1, оценка 5/5, голосовать можно 1 раз )

    Другие торренты по теме:

  • Александр Пономарев - Я люблю тебя / Олександр Пономарьов - Я люблю тебе (2016) WEB-DL [h.264 / 1080p-LQ]
  • Рио, я люблю тебя / Rio, Eu Te Amo (2014) WEB-DLRip [Line]
  • Люблю тебя, чувак / I Love You, Man (2009) BDRip
  • Рио, я люблю тебя / Rio, Eu Te Amo (2014) WEB-DLRip [576p] iPad скачать через торрент бесплатно
  • Sukitte Ii na yo. / Say "I Love You" / Скажи: «Я люблю тебя» [2012, TV, 13 ep] BDRip Hi10p 720p Raw+Rus x4(ext) скачать через торрент бесплатно
  • Я люблю тебя, мой мужчина / Seni Seviyorum Adamim (2014) WEB-DLRip [VO] скачать через торрент бесплатно
  • Я люблю тебя, не трогай меня / I Love You, Dont Touch Me! (1997) HDTV [H.264 / 1080i] скачать через торрент бесплатно
  • Кэти М. Стаут | Привет, я люблю тебя (2016) [FB2]


    • Комментарии (0):

      Информация

      Информация

        Посетители, находящиеся в группе Гости, не могут оставлять комментарии в данной новости.

        ↓ Меню




        ↓ Опрос

        Вы добавили сайт в закладки?
        Да
        Нет


        Top 10 за месяц (Фильмы)