.
Авторизация | Регистрация
Хочешь лучшие торренты? Добавь свой email!
Добавить

Торрент скачать бесплатно

» » Срок давности (2017) WEB-DL [H.264 / 1080p-LQ] (серии 1-4 из 4) торрент скачать бесплатно




    Срок давности (2017) WEB-DL [H.264 / 1080p-LQ] (серии 1-4 из 4) торрент скачать бесплатно

    Опубликовал: Админ | Дата: 11-09-2017, 05:00 | Просмотров: 0

    Производство: Украина, Россия
    Жанр: мелодрама, детектив
    Режиссер: Максим Демченко

    Актеры
    Дарья Румянцева, Вадим Колганов, Сергей Радченко, Юлия Кудояр и др.

    Описание

    Учительница Александра счастлива с мужем Антоном и дочкой Машей, она любит свою работу, жизнь ее омрачена только нехваткой денег и нелюбовью свекрови. Прикольно все это наверно придумал Уил Смит потратив достаточно времени. Когда у Антона начинаются проблемы на работе, Александра, чтобы помочь мужу, устраивается репетитором в богатую семью...

    Дата российской премьеры: 10 сентября 2017
    Релиз от: Алехаndr
    Продолжительность: ~00: 45: 00 серия
    Качество видео: WEB-DL
    Видео: AVC/H.264, 1920x1080 (16: 9), ~3010 Kbps
    Аудио: AC3, 2 ch, 192 Kbps

    Общее
    Уникальный идентификатор : 14152690081660036112090426069942097647 (0xAA5B57E8BCCB53B4E288A8D979556EF)
    Полное имя : F: Срок давности (2017).by.АлехаndrСрок давности. 1 серия.by.Алехаndr.mkv
    Формат : Matroska
    Версия формата : Version 4/Version 2
    Размер файла : 1, 00 Гбайт
    Продолжительность : 43 м. 53 с.
    Общий поток : 3267 Кбит/сек
    Программа кодирования : Lavf57.71.100
    Библиотека кодирования : Lavf57.71.100
    ErrorDetectionType : Per level 1
    Видео
    Идентификатор : 1
    Формат : AVC
    Формат/Информация : Advanced Video Codec
    Профиль формата : High@L4
    Параметр CABAC формата : Да
    Параметр RefFrames формата : 2 кадра
    Идентификатор кодека : V_MPEG4/ISO/AVC
    Продолжительность : 43 м. 53 с.
    Битрейт : 3010 Кбит/сек
    Ширина : 1920 пикселей
    Высота : 1080 пикселей
    Соотношение сторон : 16: 9
    Режим частоты кадров : Постоянный
    Частота кадров : 25, 000 кадров/сек
    Цветовое пространство : YUV
    Субдискретизация насыщенности : 4: 2: 0
    Битовая глубина : 8 бит
    Тип развёртки : Прогрессивная
    Бит/(Пиксели*Кадры) : 0.058
    Размер потока : 945 Мбайт (92%)
    Default : Да
    Forced : Нет
    Цветовой диапазон : Limited
    Основные цвета : BT.709
    Характеристики трансфера : BT.709
    Коэффициенты матрицы : BT.709
    Аудио
    Идентификатор : 2
    Формат : AC-3
    Формат/Информация : Audio Coding 3
    Параметр Endianness формата : Big
    Идентификатор кодека : A_AC3
    Продолжительность : 43 м. 53 с.
    Вид битрейта : Постоянный
    Битрейт : 192 Кбит/сек
    Каналы : 2 канала
    Расположение каналов : Front: L R
    Частота : 44, 1 КГц
    Частота кадров : 28, 711 кадров/сек (1536 SPF)
    Битовая глубина : 16 бит
    Метод сжатия : С потерями
    Задержка видео : -40 мс.
    Размер потока : 60, 3 Мбайт (6%)
    Язык : unknown
    ServiceKind/String : Complete Main
    Default : Да
    Forced : Нет

    Скриншоты для ознакомления



    Все одноименные релизы в Клубе
    Время раздачи: 24/7 (круглосуточно) (до появления первых 3-5 скачавших)

    Онлайн видео Срок давности (2017) WEB-DL [H.264



    Срок давности (2017) WEB-DL [H.264/1080p-LQ] (серии 1-4 из 4)
    загрузка...
    Рейтинг →
     (голосов: 1, оценка 4/5, голосовать можно 1 раз )

    Другие торренты по теме:

  • Срок давности (1983) IPTVRip
  • Срок давности (2017) SATRip [H.264] (серии 1-4 из 4)


    • Комментарии (0):

      Информация

      Информация

        Посетители, находящиеся в группе Гости, не могут оставлять комментарии в данной новости.

        ↓ Меню




        ↓ Опрос

        Вы добавили сайт в закладки?
        Да
        Нет


        Top 10 за месяц (Фильмы)