.
Авторизация | Регистрация
Хочешь лучшие торренты? Добавь свой email!
Добавить

Торрент скачать бесплатно

» » Новые центурионы / The New Centurions (1972) BDRip [H.264 / 720p-LQ] торрент скачать бесплатно




    Новые центурионы / The New Centurions (1972) BDRip [H.264 / 720p-LQ] торрент скачать бесплатно

    Опубликовал: Админ | Дата: 11-09-2017, 05:00 | Просмотров: 0

    Производство: США, Columbia Pictures, Chartoff-Winkler Productions
    Жанр: Драма, Детектив, Криминал
    Режиссер: Ричард Флейшер

    Актеры
    Джордж К. Скотт, Стейси Кич, Джейн Александер ст., Скотт Уилсон, Розалинд Кэш, Эрик Эстрада, Клифтон Джеймс, Ричард Е. Кальк, Джеймс Сиккинг, Беверли Хоуп Эткинсон, Энн Рэмси

    Описание

    Представленный вам фильм экранизация одноименного романа Джозефа Уэмбо. Рой Фелер, как и многие выпускники полицейской академии, идеализирует службу в полиции, но когда он поступает на службу в полицейское управление Лос-Анджелеса, мифы начинают развеиваться один за другим. Работа полицейских в Лос-Анджелесе - это ежедневный подвиг, ежеминутная схватка со смертью, борьба со всеми мыслимыми и немыслимыми проблемами. Для того, чтобы выжить и победить в этой войне на улицах, мало выучки и чистых помыслов. Адаптироваться к условиям работы Рою помогает опытный ветеран Килвински, готовящийся к выходу на пенсию после долгих лет службы в полиции Лос-Анджелеса...

    Возраст: 16+ (зрителям, достигшим 16 лет)
    Рейтинг MPAA: R (лицам до 17 лет обязательно присутствие взрослого)
    Продолжительность: 01: 43: 10
    Качество видео: BDRip
    Перевод: Дублированный, профессиональный двухголосый, авторский
    Субтитры: Английские
    Видео: AVC/H.264, 1280x544, ~3850 Kbps
    Аудио#1: AC3, 2 ch, 192 Kbps | Русский – DUB (вставки MVO)
    Аудио#2: AC3, 2 ch, 192 Kbps | Русский – DVO
    Аудио#3: DTS, 1 ch, 384 Kbps | Русский – АVO (Ю.Живов)
    Аудио#4: DTS, 1 ch, 384 Kbps | Английский – оригинал

    Общее
    Уникальный идентификатор : 185373243759076474068567534702706255196 (0x8B75968E023697A487EB0A812F53655C)
    Полное имя : F: -Новые центурионыНовые центурионы.1972.mkv
    Формат : Matroska
    Версия формата : Version 4/Version 2
    Размер файла : 3, 61 Гбайт
    Продолжительность : 1 ч. 43 м.
    Общий поток : 5006 Кбит/сек
    Название фильма : Release for Topmost
    Дата кодирования : UTC 2017-09-09 12: 11: 35
    Программа кодирования : mkvmerge v6.2.0 (\'Promised Land\') built on Apr 28 2013 12: 22: 01
    Библиотека кодирования : libebml v1.3.0 + libmatroska v1.4.0
    Attachment : Yes
    Видео
    Идентификатор : 1
    Формат : AVC
    Формат/Информация : Advanced Video Codec
    Профиль формата : High@L4.1
    Параметр CABAC формата : Да
    Параметр ReFrames формата : 10 кадров
    Идентификатор кодека : V_MPEG4/ISO/AVC
    Продолжительность : 1 ч. 43 м.
    Битрейт : 3850 Кбит/сек
    Ширина : 1280 пикселей
    Высота : 544 пикселя
    Соотношение сторон : 2, 35: 1
    Режим частоты кадров : Постоянный
    Частота кадров : 23, 976 кадра/сек
    Цветовое пространство : YUV
    Субдискретизация насыщенности : 4: 2: 0
    Битовая глубина : 8 бит
    Тип развёртки : Прогрессивная
    Бит/(Пиксели*Кадры) : 0.231
    Размер потока : 2, 71 Гбайт (75%)
    Заголовок : Новые центурионы. 1972 (Release for Topmost)
    Библиотека кодирования : x264 core 146 r2538 121396c
    Настройки программы : cabac=1/ref=10/deblock=1: -3: -3/analyse=0x3: 0x133/me=umh/subme=9/psy=1/psy_rd=1.00: 0.15/mixed_ref=1/me_range=16/chroma_me=1/trellis=2/8x8dct=1/cqm=0/deadzone=21, 11/fast_pskip=0/chroma_qp_offset=-3/threads=9/lookahead_threads=2/sliced_threads=0/nr=0/decimate=0/interlaced=0/bluray_compat=0/constrained_intra=0/bframes=8/b_pyramid=2/b_adapt=2/b_bias=0/direct=3/weightb=1/open_gop=0/weightp=2/keyint=240/keyint_min=23/scenecut=40/intra_refresh=0/rc_lookahead=40/rc=2pass/mbtree=1/bitrate=3850/ratetol=1.0/qcomp=0.60/qpmin=0/qpmax=69/qpstep=4/cplxblur=20.0/qblur=0.5/ip_ratio=1.40/aq=1: 0.90
    Язык : English
    Default : Да
    Forced : Нет
    Аудио #1
    Идентификатор : 2
    Формат : AC-3
    Формат/Информация : Audio Coding 3
    Расширение режима : CM (complete main)
    Параметр Endianness формата : Big
    Идентификатор кодека : A_AC3
    Продолжительность : 1 ч. 43 м.
    Вид битрейта : Постоянный
    Битрейт : 192 Кбит/сек
    Каналы : 2 канала
    Расположение каналов : Front: L R
    Частота : 48, 0 КГц
    Битовая глубина : 16 бит
    Метод сжатия : С потерями
    Размер потока : 142 Мбайт (4%)
    Заголовок : AC3, 2 ch, 192 kbps - DUB (Мосфильм)
    Язык : Russian
    Default : Да
    Forced : Нет
    Аудио #2
    Идентификатор : 3
    Формат : AC-3
    Формат/Информация : Audio Coding 3
    Расширение режима : CM (complete main)
    Параметр Endianness формата : Big
    Идентификатор кодека : A_AC3
    Продолжительность : 1 ч. 43 м.
    Вид битрейта : Постоянный
    Битрейт : 192 Кбит/сек
    Каналы : 2 канала
    Расположение каналов : Front: L R
    Частота : 48, 0 КГц
    Битовая глубина : 16 бит
    Метод сжатия : С потерями
    Размер потока : 142 Мбайт (4%)
    Заголовок : AC3, 2 ch, 192 kbps - DVO (HTB+)
    Язык : Russian
    Default : Нет
    Forced : Нет
    Аудио #3
    Идентификатор : 4
    Формат : DTS
    Формат/Информация : Digital Theater Systems
    Режим : 16
    Параметр Endianness формата : Big
    Идентификатор кодека : A_DTS
    Продолжительность : 1 ч. 43 м.
    Вид битрейта : Постоянный
    Битрейт : 384 Кбит/сек
    Каналы : 1 канал
    Расположение каналов : Front: C
    Частота : 48, 0 КГц
    Битовая глубина : 24 бит
    Метод сжатия : С потерями
    Размер потока : 283 Мбайт (8%)
    Заголовок : DTS, 1 ch, 384 kbps - AVO (Юрий Живов)
    Язык : Russian
    Default : Нет
    Forced : Нет
    Аудио #4
    Идентификатор : 5
    Формат : DTS
    Формат/Информация : Digital Theater Systems
    Режим : 16
    Параметр Endianness формата : Big
    Идентификатор кодека : A_DTS
    Продолжительность : 1 ч. 43 м.
    Вид битрейта : Постоянный
    Битрейт : 384 Кбит/сек
    Каналы : 1 канал
    Расположение каналов : Front: C
    Частота : 48, 0 КГц
    Битовая глубина : 24 бит
    Метод сжатия : С потерями
    Размер потока : 283 Мбайт (8%)
    Заголовок : DTS, 1 ch, 384 kbps - original
    Язык : English
    Default : Нет
    Forced : Нет
    Текст
    Идентификатор : 6
    Формат : UTF-8
    Идентификатор кодека : S_TEXT/UTF8
    Идентификатор кодека/Информация : UTF-8 Plain Text
    Заголовок : английские
    Язык : English
    Default : Нет
    Forced : Нет


    Онлайн видео Новые центурионы



    Новые центурионы/The New Centurions (1972) BDRip [H.264/720p-LQ]
    загрузка...
    Рейтинг →
     (голосов: 1, оценка 4/5, голосовать можно 1 раз )

    Другие торренты по теме:

  • Новые центурионы / The New Centurions (1972) DVDRip [H.264] скачать через торрент бесплатно


    • Комментарии (0):

      Информация

      Информация

        Посетители, находящиеся в группе Гости, не могут оставлять комментарии в данной новости.

        ↓ Меню




        ↓ Опрос

        Вы добавили сайт в закладки?
        Да
        Нет


        Top 10 за месяц (Фильмы)