.
Авторизация | Регистрация
Хочешь лучшие торренты? Добавь свой email!
Добавить

Торрент скачать бесплатно

» » Superнянь 1-2 / Babysitting 1-2 (2014-2015) BDRip [H.264 / 1080p-LQ] [Дилогия] торрент скачать бесплатно




    Superнянь 1-2 / Babysitting 1-2 (2014-2015) BDRip [H.264 / 1080p-LQ] [Дилогия] торрент скачать бесплатно

    Опубликовал: Админ | Дата: 11-09-2017, 05:00 | Просмотров: 0

    Производство: Франция/Universal Pictures International (UPI)
    Жанр: комедия
    Режиссер: Николя Бенаму, Филипп Лашо
    Продюсер: Кристоф Сервони, Марк Фисцман, Александр Акока

    Актеры
    Филипп Лашо, Алис Давид, Венсан Дезанья, Тарек Будали, Жюльен Аррути, Грегуар Людиг, Давид Марсе, Жерар Жюньо, Клотильда Куро, Филипп Дюкен

    Описание

    Клэр и Марк уезжают на все выходные, оставив своего сына под присмотром хорошего парня Фрэнка. На следующее утро парочку будит звонок полицейского, который сообщает, что их дом перевернут верх дном, а сын исчез! На месте происшествия полиция находит камеру, на которой запечатлены все события предыдущей ночи. Только посмотрев видео родители смогут узнать куда исчез их сын и что случилось в эту ночь… когда Фрэнк праздновал 30-летие.

    Возраст: 16+ (зрителям, достигшим 16 лет)
    Релиз от: Magnetto83
    Продолжительность: 01: 24: 04
    Качество: BDRip 1080p-LQ
    Перевод: Дублированный (iTunes)
    Субтитры: Русские (полные), французские (полные+SHD)
    Видео: H.264/AVC, 1920x1036, (1.85: 1), 6 861 kbps, 23.976 fps
    Аудио: AC3, 6 ch, 384 kbps - Русский
    Аудио: AC3, 2 ch, 192 kbps - Украинский
    General
    Unique ID : 248084639655213105723649358333731688834 (0xBAA35D168EB451358279AF8B2A105182)
    Complete name : Superнянь 1 2014 Dub Rus+Mvo Ukr BDRip 1080p.mkv
    Format : Matroska
    Format version : Version 4/Version 2
    File size : 4.36 GiB
    Duration : 1 h 24 min
    Overall bit rate : 7 429 kb/s
    Movie name : Superнянь 1 2014 Dub Rus+Mvo Ukr BDRip 1080p By R.G. GoldenShara
    Encoded date : UTC 2017-09-03 14: 25: 51
    Writing application : mkvmerge v7.0.0 (\'Where We Going\') 64bit built on Jun 9 2014 15: 16: 27
    Writing library : libebml v1.3.0 + libmatroska v1.4.1
    Cover : Yes
    Attachments : Cover.jpg
    Video
    ID : 1
    Format : AVC
    Format/Info : Advanced Video Codec
    Format profile : High@L4.1
    Format settings, CABAC : Yes
    Format settings, ReFrames : 4 frames
    Codec ID : V_MPEG4/ISO/AVC
    Duration : 1 h 24 min
    Bit rate : 6 861 kb/s
    Width : 1 920 pixels
    Height : 1 036 pixels
    Display aspect ratio : 1.85: 1
    Frame rate mode : Constant
    Frame rate : 23.976 (24000/1001) FPS
    Color space : YUV
    Chroma subsampling : 4: 2: 0
    Bit depth : 8 bits
    Scan type : Progressive
    Bits/(Pixel*Frame) : 0.144
    Stream size : 4.02 GiB (92%)
    Title : Superнянь 2014 BDRip 1080p By Magnetto 83
    Writing library : x264 core 146 r2538 121396c
    Encoding settings : cabac=1/ref=4/deblock=1: -1: -1/analyse=0x3: 0x113/me=umh/subme=10/psy=1/psy_rd=1.00: 0.00/mixed_ref=1/me_range=32/chroma_me=1/trellis=2/8x8dct=1/cqm=0/deadzone=21, 11/fast_pskip=0/chroma_qp_offset=-2/threads=3/lookahead_threads=1/sliced_threads=0/nr=0/decimate=1/interlaced=0/bluray_compat=0/constrained_intra=0/bframes=8/b_pyramid=2/b_adapt=2/b_bias=0/direct=3/weightb=1/open_gop=0/weightp=2/keyint=250/keyint_min=23/scenecut=40/intra_refresh=0/rc=2pass/mbtree=0/bitrate=6861/ratetol=1.0/qcomp=0.60/qpmin=0/qpmax=69/qpstep=4/cplxblur=20.0/qblur=0.5/ip_ratio=1.40/pb_ratio=1.30/aq=2: 1.00
    Language : French
    Default : Yes
    Forced : No
    Audio #1
    ID : 2
    Format : AC-3
    Format/Info : Audio Coding 3
    Format settings, Endianness : Big
    Codec ID : A_AC3
    Duration : 1 h 24 min
    Bit rate mode : Constant
    Bit rate : 384 kb/s
    Channel(s) : 6 channels
    Channel positions : Front: L C R, Side: L R, LFE
    Sampling rate : 48.0 kHz
    Frame rate : 31.250 FPS (1536 spf)
    Bit depth : 16 bits
    Compression mode : Lossy
    Stream size : 231 MiB (5%)
    Title : DD 5.1 @ 384 kbps - Дубляж | iTunes |
    Language : Russian
    Service kind : Complete Main
    Default : Yes
    Forced : No
    Audio #2
    ID : 3
    Format : AC-3
    Format/Info : Audio Coding 3
    Format settings, Endianness : Big
    Codec ID : A_AC3
    Duration : 1 h 24 min
    Bit rate mode : Constant
    Bit rate : 192 kb/s
    Channel(s) : 2 channels
    Channel positions : Front: L R
    Sampling rate : 48.0 kHz
    Frame rate : 31.250 FPS (1536 spf)
    Bit depth : 16 bits
    Compression mode : Lossy
    Stream size : 115 MiB (3%)
    Title : DD 2.0 @ 192 kbps - Багатоголосий | MEGOGO Distribution |
    Language : Ukrainian
    Service kind : Complete Main
    Default : No
    Forced : No
    Text #1
    ID : 4
    Format : UTF-8
    Codec ID : S_TEXT/UTF8
    Codec ID/Info : UTF-8 Plain Text
    Duration : 1 h 19 min
    Bit rate : 146 b/s
    Count of elements : 1530
    Stream size : 85.6 KiB (0%)
    Title : Полные
    Language : Russian
    Default : No
    Forced : No
    Text #2
    ID : 5
    Format : UTF-8
    Codec ID : S_TEXT/UTF8
    Codec ID/Info : UTF-8 Plain Text
    Duration : 1 h 19 min
    Bit rate : 99 b/s
    Count of elements : 1291
    Stream size : 57.8 KiB (0%)
    Title : Full
    Language : French
    Default : No
    Forced : No
    Text #3
    ID : 6
    Format : UTF-8
    Codec ID : S_TEXT/UTF8
    Codec ID/Info : UTF-8 Plain Text
    Duration : 1 h 19 min
    Bit rate : 100 b/s
    Count of elements : 1311
    Stream size : 58.2 KiB (0%)
    Title : SDH
    Language : French
    Default : No
    Forced : No
    Menu
    00: 00: 00.000 : en: (01)00: 00: 00: 000
    00: 05: 06.389 : en: (02)00: 05: 06: 389
    00: 08: 33.763 : en: (03)00: 08: 33: 763
    00: 12: 35.129 : en: (04)00: 12: 35: 129
    00: 16: 14.223 : en: (05)00: 16: 14: 223
    00: 19: 16.196 : en: (06)00: 19: 16: 196
    00: 25: 00.707 : en: (07)00: 25: 00: 707
    00: 30: 43.800 : en: (08)00: 30: 43: 800
    00: 34: 40.620 : en: (09)00: 34: 40: 620
    00: 39: 10.222 : en: (10)00: 39: 10: 222
    00: 44: 48.519 : en: (11)00: 44: 48: 519
    00: 48: 36.622 : en: (12)00: 48: 36: 622
    00: 52: 12.379 : en: (13)00: 52: 12: 379
    00: 57: 19.853 : en: (14)00: 57: 19: 853
    00: 59: 41.744 : en: (15)00: 59: 41: 744
    01: 02: 33.040 : en: (16)01: 02: 33: 040
    01: 08: 12.671 : en: (17)01: 08: 12: 671
    01: 12: 18.250 : en: (18)01: 12: 18: 250
    01: 15: 11.673 : en: (19)01: 15: 11: 673
    01: 20: 09.679 : en: (20)01: 20: 09: 679
    01: 24: 03.580 : en: (21)01: 24: 03: 580
    YouTube

    Скриншоты для ознакомления


    Superнянь 2/Babysitting 2 (2015) BDRip H.264/1080p-LQ
    Производство: Франция/Universal Pictures International (UPI)
    Жанр: комедия
    Режиссер: Николя Бенаму, Филипп Лашо
    Продюсер: Кристоф Сервони, Марк Фисцман, Жюльен Дери

    Актеры
    Филипп Лашо, Алис Давид, Венсан Дезанья, Тарек Будали, Кристиан Клавье, Жюльен Аррути, Грегуар Людиг, Давид Марсе, Шарлотта Габрис, Бето Бенитес

    Описание

    Влюбленная парочка Фрэнк и Соня приглашают своих друзей на отдых в Бразилию, в роскошный отель богатенького папы Сони. Планировалось, что это будет отдых мечты, а Фрэнк сделает Соне предложение посреди всей этой экзотики. Но его попытки получить одобрение отца оборачиваются полным провалом. Ведь с такими друзьями, как у него, и враги не нужны!
    Но настоящая катастрофа — впереди. Когда друзья — сексуально озабоченный Сэм, наивный чудак Эрнест и умственно отсталый Алекс — вместе с беднягой Фрэнком собрались на экскурсию, ушлый папаша пользуется возможностью и засылает в джунгли с этой бандой свою крикливую и надоедливую старушку. В общем, Амазонка и ее девственные леса еще никогда не были в такой опасности!

    Возраст: 16+ (зрителям, достигшим 16 лет)
    Релиз от: Magnetto83
    Продолжительность: 01: 33: 20
    Качество: BDRip 1080p-LQ
    Перевод: Дублированный (iTunes)
    Субтитры: Русские (полные), украинские (полные)
    Видео: H.264/AVC, 1920x1036, (1.85: 1), 6 124 kbps, 24.000 FPS
    Аудио: AC3, 6 ch, 384 kbps - Русский
    Аудио: AC3, 2 ch, 192 kbps - Украинский
    General
    Unique ID : 238621763273718307282723810071127456138 (0xB384E142E795DF319BA47858D26EF98A)
    Complete name : Superнянь 2 2015 Dub Rus Ukr BDRip 1080p.mkv
    Format : Matroska
    Format version : Version 4/Version 2
    File size : 4.37 GiB
    Duration : 1 h 33 min
    Overall bit rate : 6 700 kb/s
    Movie name : Superнянь 2 2015 Dub Rus Ukr BDRip 1080p By R.G. GoldenShara
    Encoded date : UTC 2017-08-21 10: 52: 47
    Writing application : mkvmerge v7.8.0 (\'River Man\') 32bit built on Mar 27 2015 16: 18: 02
    Writing library : libebml v1.3.1 + libmatroska v1.4.2
    Attachments : poster.jpg
    Video
    ID : 1
    Format : AVC
    Format/Info : Advanced Video Codec
    Format profile : High@L4.1
    Format settings, CABAC : Yes
    Format settings, ReFrames : 4 frames
    Codec ID : V_MPEG4/ISO/AVC
    Duration : 1 h 33 min
    Bit rate : 6 124 kb/s
    Width : 1 920 pixels
    Height : 1 036 pixels
    Display aspect ratio : 1.85: 1
    Frame rate mode : Constant
    Frame rate : 24.000 FPS
    Color space : YUV
    Chroma subsampling : 4: 2: 0
    Bit depth : 8 bits
    Scan type : Progressive
    Bits/(Pixel*Frame) : 0.128
    Stream size : 3.99 GiB (91%)
    Title : Superнянь 2 2015 BDRip 1080p By Magnetto 83
    Writing library : x264 core 146 r2538 121396c
    Encoding settings : cabac=1/ref=4/deblock=1: -1: -1/analyse=0x3: 0x113/me=umh/subme=11/psy=1/psy_rd=1.00: 0.00/mixed_ref=1/me_range=32/chroma_me=1/trellis=2/8x8dct=1/cqm=0/deadzone=21, 11/fast_pskip=0/chroma_qp_offset=-2/threads=3/lookahead_threads=1/sliced_threads=0/nr=0/decimate=1/interlaced=0/bluray_compat=0/constrained_intra=0/bframes=8/b_pyramid=2/b_adapt=2/b_bias=0/direct=3/weightb=1/open_gop=0/weightp=2/keyint=250/keyint_min=23/scenecut=40/intra_refresh=0/rc=2pass/mbtree=0/bitrate=6124/ratetol=1.0/qcomp=0.60/qpmin=0/qpmax=69/qpstep=4/cplxblur=20.0/qblur=0.5/ip_ratio=1.40/pb_ratio=1.30/aq=2: 1.00
    Language : French
    Default : Yes
    Forced : No
    Audio #1
    ID : 2
    Format : AC-3
    Format/Info : Audio Coding 3
    Format settings, Endianness : Big
    Codec ID : A_AC3
    Duration : 1 h 33 min
    Bit rate mode : Constant
    Bit rate : 384 kb/s
    Channel(s) : 6 channels
    Channel positions : Front: L C R, Side: L R, LFE
    Sampling rate : 48.0 kHz
    Frame rate : 31.250 FPS (1536 spf)
    Bit depth : 16 bits
    Compression mode : Lossy
    Stream size : 256 MiB (6%)
    Title : DD 5.1 @ 384 Kbps - Dub | iTunes |
    Language : Russian
    Service kind : Complete Main
    Default : Yes
    Forced : No
    Audio #2
    ID : 3
    Format : AC-3
    Format/Info : Audio Coding 3
    Format settings, Endianness : Big
    Codec ID : A_AC3
    Duration : 1 h 33 min
    Bit rate mode : Constant
    Bit rate : 192 kb/s
    Channel(s) : 2 channels
    Channel positions : Front: L R
    Sampling rate : 48.0 kHz
    Frame rate : 31.250 FPS (1536 spf)
    Bit depth : 16 bits
    Compression mode : Lossy
    Stream size : 128 MiB (3%)
    Title : DD 2.0 @ 192 Kbps - Dub | iTunes |
    Language : Ukrainian
    Service kind : Complete Main
    Default : No
    Forced : No
    Text #1
    ID : 4
    Format : UTF-8
    Codec ID : S_TEXT/UTF8
    Codec ID/Info : UTF-8 Plain Text
    Duration : 1 h 25 min
    Bit rate : 123 b/s
    Count of elements : 2213
    Stream size : 77.4 KiB (0%)
    Title : Полные
    Language : Russian
    Default : No
    Forced : No
    Text #2
    ID : 5
    Format : UTF-8
    Codec ID : S_TEXT/UTF8
    Codec ID/Info : UTF-8 Plain Text
    Duration : 1 h 25 min
    Bit rate : 124 b/s
    Count of elements : 2213
    Stream size : 77.6 KiB (0%)
    Title : Повні
    Language : Ukrainian
    Default : No
    Forced : No
    Menu
    00: 00: 00.000 : : Chapter 01
    00: 10: 38.791 : : Chapter 02
    00: 18: 30.500 : : Chapter 03
    00: 28: 19.041 : : Chapter 04
    00: 40: 38.541 : : Chapter 05
    00: 49: 41.125 : : Chapter 06
    00: 59: 20.375 : : Chapter 07
    01: 12: 05.500 : : Chapter 08
    01: 19: 33.666 : : Chapter 09
    01: 28: 21.916 : : Chapter 10
    YouTube

    Скриншоты для ознакомления


    Релизы фильма Superнянь 1-2/Babysitting 1-2 на NNM Club
    Время раздачи: с 9: 00 до 23: 00

    Онлайн видео Superнянь 1-2



    Superнянь 1-2/Babysitting 1-2 (2014-2015) BDRip [H.264/1080p-LQ] [Дилогия]
    загрузка...
    Рейтинг →
     (голосов: 1, оценка 5/5, голосовать можно 1 раз )

    Другие торренты по теме:

  • Superнянь / Babysitting (2014) HDRip [Line] скачать через торрент бесплатно
  • Superнянь / Babysitting (2014) BDRip [1080p] [Line] скачать через торрент бесплатно
  • Superнянь / Babysitting (2014) BDRip [720p] [Line]
  • Superнянь / Babysitting (2014) HDRip
  • Superнянь / Babysitting (2014) HDRip скачать через торрент бесплатно
  • Superнянь / Babysitting (2014) BDRip [1080p] скачать через торрент бесплатно
  • Superнянь / Babysitting (2014) BDRemux [1080p] скачать через торрент бесплатно
  • Superнянь / Babysitting (2014) BDRip [1080p] ATV


    • Комментарии (0):

      Информация

      Информация

        Посетители, находящиеся в группе Гости, не могут оставлять комментарии в данной новости.

        ↓ Меню




        ↓ Опрос

        Вы добавили сайт в закладки?
        Да
        Нет


        Top 10 за месяц (Фильмы)