.
Авторизация | Регистрация
Хочешь лучшие торренты? Добавь свой email!
Добавить

Торрент скачать бесплатно

» » Чиппендейл (2012) WEBRip [H.264 / 1080p-LQ] торрент скачать бесплатно



    Чиппендейл (2012) WEBRip [H.264 / 1080p-LQ] торрент скачать бесплатно

    Опубликовал: Админ | Дата: 11-09-2017, 05:00 | Просмотров: 0

    Производство: Россия
    Жанр: Короткометражный, трагикомедия
    Режиссер: Камила Сафина
    Продюсер: Иван Золотухин, Камила Сафина

    Актеры
    Виктор Сухоруков, Фандус Гаптуллин, Владимир Любовский, Максим Бартош, Елена Сердюкова

    Описание

    Владелец антикварной лавки Михаил случайно обнаруживает в заснеженной татарской деревне бесценный комод работы Томаса Чиппендейла — крупнейшего мастера мебельного искусства. Всего шаг отделяет обаятельного прохиндея от мировой славы и богатства. Удастся ли Мише обмануть владельцев комода, приобретя антикварный раритет за бесценок?

    Дата мировой премьеры: 5 июля 2013
    Дата российской премьеры: 1 сентября 2012
    Продолжительность: 00: 15: 38
    Качество видео: WEBRip
    Перевод: Не требуется
    Субтитры: Английские (вшитые, неотключаемые)
    Реклама: Отсутствует
    Видео: AVC/H.264, 1920х1080 (16: 9), ~2468 kbps, 25 fps
    Аудио: AAC, 2 ch, 126 kbps, 44.1 kHz

    General
    Unique ID : 205032472561805052138635050810639328066 (0x9A3FD15E7A17BE0FAD6DC60C1FE32342)
    Complete name : D: _RUSSIANShort_FilmsChippendale_WebRip.mkv
    Format : Matroska
    Format version : Version 4/Version 2
    File size : 290 MiB
    Duration : 15 min 38 s
    Overall bit rate : 2 595 kb/s
    Encoded date : UTC 2017-09-10 08: 52: 05
    Writing application : mkvmerge v12.0.0 (\'Trust/Lust\') 64bit
    Writing library : libebml v1.3.4 + libmatroska v1.4.5
    Video
    ID : 1
    Format : AVC
    Format/Info : Advanced Video Codec
    Format profile : High@L4
    Format settings, CABAC : Yes
    Format settings, ReFrames : 3 frames
    Codec ID : V_MPEG4/ISO/AVC
    Duration : 15 min 38 s
    Bit rate : 2 468 kb/s
    Width : 1 920 pixels
    Height : 1 080 pixels
    Display aspect ratio : 16: 9
    Frame rate mode : Constant
    Frame rate : 25.000 FPS
    Color space : YUV
    Chroma subsampling : 4: 2: 0
    Bit depth : 8 bits
    Scan type : Progressive
    Bits/(Pixel*Frame) : 0.048
    Stream size : 276 MiB (95%)
    Default : Yes
    Forced : No
    Audio
    ID : 2
    Format : AAC
    Format/Info : Advanced Audio Codec
    Format profile : LC
    Codec ID : A_AAC
    Duration : 15 min 38 s
    Bit rate : 126 kb/s
    Channel(s) : 2 channels
    Channel positions : Front: L R
    Sampling rate : 44.1 kHz
    Frame rate : 43.066 FPS (1024 spf)
    Compression mode : Lossy
    Stream size : 14.1 MiB (5%)
    Title : Rus
    Language : Russian
    Default : Yes
    Forced : No

    Скриншоты для ознакомления



    Все одноименные релизы в Клубе
    Время раздачи: 24/7 (до появления первых 3-5 скачавших)

    Онлайн видео Чиппендейл (2012) WEBRip [H.264


    Прямая ссылка скачивания через uTorrent


    Чиппендейл (2012) WEBRip [H.264/1080p-LQ]
    загрузка...
    Рейтинг →
     (голосов: 1, оценка 5/5, голосовать можно 1 раз )

    Другие торренты по теме:



      Комментарии (0):

      Информация

      Информация

        Посетители, находящиеся в группе Гости, не могут оставлять комментарии в данной новости.

        ↓ Меню




        ↓ Опрос

        Вы добавили сайт в закладки?
        Да
        Нет


        Top 10 за месяц (Фильмы)