.
Авторизация | Регистрация
Хочешь лучшие торренты? Добавь свой email!
Добавить

Торрент скачать бесплатно

» » Луна-парк (1992) DVDRip торрент скачать бесплатно




    Луна-парк (1992) DVDRip торрент скачать бесплатно

    Опубликовал: Админ | Дата: 11-09-2017, 05:00 | Просмотров: 0

    Производство: Франция, Россия/Блюз, CiBy 2000, IMA Productions
    Жанр: Драма
    Режиссер: Павел Лунгин

    Актеры
    Олег Борисов, Андрей Гутин, Наталья Егорова, Нонна Мордюкова, Михаил Голубович, Александр Феклистов, Татьяна Лебедькова, Александр Савин, Маргарита Гладунко, Игорь Золотовицкий, Инга Ильм, Лилиана Лунгина

    Описание

    Крепкий молодой человек по имени Андрей руководит радикальной антисемитской организацией чистильщиков, члены которой принимают участие в массовых потасовках с байкерами, занимаются грабежом кооператоров и перевоспитывают гомосексуалистов. После одного из ограблений Андрей неожиданно узнаёт, что его отцом является известным композитор, еврей, который, кроме всего прочего, в своё время похоронил мечты близкой подруги Андрея Алёны о карьере оперной певицы. После несколько нервного начала, отношения между сыном и отцом начинают понемногу налаживаться, но вскоре Андрею приходится сводить счёты с собственным прошлым.

    Продолжительность: 01: 45: 40
    Качество видео: DVDRip
    Видео: Xvid, 640x432, ~1706 Kbps
    Аудио: AC3, 2 ch, 256 Kbps

    General
    Complete name : /media/win/TORRENT/UPLOAD TORRENTS/Lunapark.1992.avi
    Format : AVI
    Format/Info : Audio Video Interleave
    File size : 1.46 GiB
    Duration : 1 h 45 min
    Overall bit rate : 1 973 kb/s
    Director : zim2001
    Writing application : VirtualDubMod 1.5.10.2 (build 2540/release)
    Copyright : torrents.ru
    Video
    ID : 0
    Format : MPEG-4 Visual
    Format profile : Advanced Simple@L5
    Format settings, BVOP : 1
    Format settings, QPel : No
    Format settings, GMC : No warppoints
    Format settings, Matrix : Custom
    Codec ID : XVID
    Codec ID/Hint : XviD
    Duration : 1 h 45 min
    Bit rate : 1 707 kb/s
    Width : 640 pixels
    Height : 432 pixels
    Display aspect ratio : 3: 2
    Frame rate : 25.000 FPS
    Color space : YUV
    Chroma subsampling : 4: 2: 0
    Bit depth : 8 bits
    Scan type : Progressive
    Compression mode : Lossy
    Bits/(Pixel*Frame) : 0.247
    Stream size : 1.26 GiB (87%)
    Writing library : XviD 1.2.1 (UTC 2008-12-04)
    Audio
    ID : 1
    Format : AC-3
    Format/Info : Audio Coding 3
    Format settings, Endianness : Big
    Codec ID : 2000
    Duration : 1 h 45 min
    Bit rate mode : Constant
    Bit rate : 256 kb/s
    Channel(s) : 2 channels
    Channel positions : Front: L R
    Sampling rate : 48.0 kHz
    Frame rate : 31.250 FPS (1536 SPF)
    Bit depth : 16 bits
    Compression mode : Lossy
    Stream size : 194 MiB (13%)
    Alignment : Split accross interleaves
    Interleave, duration : 40 ms (1.00 video frame)
    Interleave, preload duration : 500 ms
    Service kind : Complete Main


    Онлайн видео Луна



    Луна-парк (1992) DVDRip
    загрузка...
    Рейтинг →
     (голосов: 1, оценка 5/5, голосовать можно 1 раз )

    Другие торренты по теме:



      Комментарии (0):

      Информация

      Информация

        Посетители, находящиеся в группе Гости, не могут оставлять комментарии в данной новости.

        ↓ Меню




        ↓ Опрос

        Вы добавили сайт в закладки?
        Да
        Нет


        Top 10 за месяц (Фильмы)