.
Авторизация | Регистрация
Хочешь лучшие торренты? Добавь свой email!
Добавить

Торрент скачать бесплатно

» » Привидение / Ghost (1990) BDRip [H.264 / 1080p] торрент скачать бесплатно




    Привидение / Ghost (1990) BDRip [H.264 / 1080p] торрент скачать бесплатно

    Опубликовал: Админ | Дата: 11-09-2017, 05:00 | Просмотров: 0

    Производство: США/Paramount Pictures
    Жанр: Фэнтези, Драма, Детектив
    Режиссер: Джерри Цукер

    Актеры
    Патрик Суэйзи, Деми Мур, Вупи Голдберг, Тони Голдвин, Стэнли Лоуренс, Кристофер Дж. Кин, Сьюзэн Бреслау, Мартина Дэйнан, Рик Клебер, Мэка Фоли, Рик Авилес, Фил Лидз, Джон Хью

    Описание

    Счастливая парочка возвращается домой после вечера в театре. На тёмной аллее на них нападает грабитель… Защищаясь, Сэм погибает. Теперь он только призрак, но всё еще может помочь своей возлюбленной! Сэм-привидение узнаёт, что его смерть не была случайной, а над Молли нависла смертельная опасность! Но для Молли он теперь человек-невидимка, которого она не видит и не слышит. Как предупредить её об опасности?
    Единственный способ связаться с Молли и передать ей важное сообщение — воспользоваться сверхъестественными способностями неопытной женщины-медиума по имени Ода Мэй Браун. Ода не уверена в своих силах, но очень хочет помочь…

    Возраст: 12+ (зрителям, достигшим 12 лет)
    Рейтинг MPAA: PG-13 (детям до 13 лет просмотр нежелателен)
    Дата выхода DVD/Blu-ray релиза: 5 апреля 2011, Юниверсал Пикчерс Рус
    Релиз от: RG NNM Club Video
    Продолжительность: 02: 06: 39
    Качество видео: BDRip
    Перевод: Многоголосый закадровый
    Субтитры: русские, английские (полные)
    Видео: AVC/H.264, 1920х1080, ~10 Mbps
    Аудио #1: AC3, 6 ch, 640 kbps - русский
    Аудио #2: AC3, 6 ch, 640 kbps - английский

    x264 info: frame I: 1104 Avg QP: 18.72 size: 187452
    x264 info: frame P: 42542 Avg QP: 19.15 size: 90059
    x264 info: frame B: 138562 Avg QP: 20.52 size: 39384
    Format : Matroska
    Format version : Version 4/Version 2
    File size : 9.98 GiB
    Duration : 2h 6mn
    Overall bit rate : 11.3 Mbps
    Encoded date : UTC 2017-09-10 07: 07: 02
    Writing application : mkvmerge v9.8.0 (\'Kuglblids\') 64bit
    Writing library : libebml v1.3.4 + libmatroska v1.4.5
    Video
    ID : 1
    Format : AVC
    Format/Info : Advanced Video Codec
    Format profile : High@L4.1
    Format settings, CABAC : Yes
    Format settings, ReFrames : 4 frames
    Codec ID : V_MPEG4/ISO/AVC
    Duration : 2h 6mn
    Bit rate : 10 000 Kbps
    Width : 1 920 pixels
    Height : 1 080 pixels
    Display aspect ratio : 16: 9
    Frame rate mode : Constant
    Frame rate : 23.976 fps
    Color space : YUV
    Chroma subsampling : 4: 2: 0
    Bit depth : 8 bits
    Scan type : Progressive
    Bits/(Pixel*Frame) : 0.201
    Stream size : 8.65 GiB (87%)
    Writing library : x264 core 152 r2851M ba24899
    Encoding settings : cabac=1/ref=4/deblock=1: -3: -3/analyse=0x3: 0x113/me=umh/subme=10/psy=1/psy_rd=1.05: 0.10/mixed_ref=1/me_range=24/chroma_me=1/trellis=2/8x8dct=1/cqm=0/deadzone=21, 11/fast_pskip=0/chroma_qp_offset=-3/threads=5/lookahead_threads=1/sliced_threads=0/nr=0/decimate=1/interlaced=0/bluray_compat=0/constrained_intra=0/bframes=8/b_pyramid=2/b_adapt=2/b_bias=0/direct=1/weightb=1/open_gop=0/weightp=2/keyint=230/keyint_min=23/scenecut=40/intra_refresh=0/rc=2pass/mbtree=0/bitrate=10000/ratetol=1.0/qcomp=0.70/qpmin=3/qpmax=69/qpstep=4/cplxblur=20.0/qblur=0.5/ip_ratio=1.40/pb_ratio=1.30/aq=2: 1.00
    Default : Yes
    Forced : No
    Audio #1
    ID : 2
    Format : AC-3
    Format/Info : Audio Coding 3
    Mode extension : CM (complete main)
    Format settings, Endianness : Big
    Codec ID : A_AC3
    Duration : 2h 6mn
    Bit rate mode : Constant
    Bit rate : 640 Kbps
    Channel(s) : 6 channels
    Channel positions : Front: L C R, Side: L R, LFE
    Sampling rate : 48.0 KHz
    Bit depth : 16 bits
    Compression mode : Lossy
    Stream size : 580 MiB (6%)
    Language : Russian
    Default : Yes
    Forced : No
    Audio #2
    ID : 3
    Format : AC-3
    Format/Info : Audio Coding 3
    Mode extension : CM (complete main)
    Format settings, Endianness : Big
    Codec ID : A_AC3
    Duration : 2h 6mn
    Bit rate mode : Constant
    Bit rate : 640 Kbps
    Channel(s) : 6 channels
    Channel positions : Front: L C R, Side: L R, LFE
    Sampling rate : 48.0 KHz
    Bit depth : 16 bits
    Compression mode : Lossy
    Stream size : 580 MiB (6%)
    Language : English
    Default : No
    Forced : No
    Text #1
    ID : 4
    Format : UTF-8
    Codec ID : S_TEXT/UTF8
    Codec ID/Info : UTF-8 Plain Text
    Title : BD CEE
    Language : Russian
    Default : No
    Forced : No
    Text #2
    ID : 5
    Format : UTF-8
    Codec ID : S_TEXT/UTF8
    Codec ID/Info : UTF-8 Plain Text
    Title : SDH
    Language : English
    Default : No
    Forced : No

    Скриншоты для ознакомления



    Все одноименные релизы в Клубе
    Время раздачи: 24/7 (до появления первых 3-5 скачавших)

    Онлайн видео Привидение



    Привидение/Ghost (1990) BDRip [H.264/1080p]
    загрузка...
    Рейтинг →
     (голосов: 1, оценка 3/5, голосовать можно 1 раз )

    Другие торренты по теме:

  • Привидение / Ghost (1990) BDRip [H.264 / 1080p] скачать через торрент бесплатно
  • Привидение / Ghost (1990) BDRip [H.264 / 1080p-LQ] скачать через торрент бесплатно
  • Привидение / Ghost (1990) BDRip [H.265 / 1080p-LQ] [MVO]
  • Моя собака-привидение / Пес-призрак / My Ghost Dog (1997) DVDRip


    • Комментарии (0):

      Информация

      Информация

        Посетители, находящиеся в группе Гости, не могут оставлять комментарии в данной новости.

        ↓ Меню




        ↓ Опрос

        Вы добавили сайт в закладки?
        Да
        Нет


        Top 10 за месяц (Фильмы)