.
Авторизация | Регистрация
Хочешь лучшие торренты? Добавь свой email!
Добавить

Торрент скачать бесплатно

» » Мой любимый динозавр / My Pet Dinosaur (2017) WEB-DLRip [MVO] [AD] торрент скачать бесплатно




    Мой любимый динозавр / My Pet Dinosaur (2017) WEB-DLRip [MVO] [AD] торрент скачать бесплатно

    Опубликовал: Админ | Дата: 11-09-2017, 05:00 | Просмотров: 0

    Производство: Австралия
    Жанр: Боевик, Приключения, Семейный
    Режиссер: Мэтт Драммонд

    Актеры
    Джордан Дулье, Аннабель Вулф, Джоэнн Сэмюэл, Дэвид Робертс, Тириел Мора, Сэм Уинспир-Шиллингс, Дариус Уильямс, Кристофер Габарди, Бет Чемпион, Том Руни

    Описание

    Джейк заводит нового необычного друга, но, увы, эксперимент идет не по плану и город превращается в полный хаос. Но существо, с которым подружился Джейк, с каждым днем развивается быстрее, и мальчику становится трудно скрывать питомца. Друзья Джейка понимают, что не их одних интересует этот странный динозавр и вскоре узнают, что самым загадочным в ситуации оказалось не само существо, а тот, кто его искал.

    Дата мировой премьеры: 22 апреля 2017
    Дата российской премьеры: 4 января 2018, Кинологистика
    Продолжительность: 01: 39: 05
    Качество видео: WEB-DLRip
    Перевод: Многоголосый закадровый (MUZOBOZ)
    Субтитры: отсутствуют
    Реклама: присутствуют аудио и видео вставки рекламы
    Видео: Xvid, 720x304, ~1773 Kbps
    Аудио: AC3, 2 ch, 384 Kbps

    General
    Complete name : D: Zona DownloadsMy.Pet.Dinosaur.2017.P.WEB-DLRip.14OOMB.avi
    Format : AVI
    Format/Info : Audio Video Interleave
    File size : 1.50 GiB
    Duration : 1 h 39 min
    Overall bit rate : 2 167 kb/s
    Writing application : VirtualDubMod 1.5.10.2 (build 2540/release)
    Writing library : VirtualDubMod build 2540/release
    Video
    ID : 0
    Format : MPEG-4 Visual
    Format profile : Advanced Simple@L5
    Format settings, BVOP : 2
    Format settings, QPel : No
    Format settings, GMC : No warppoints
    Format settings, Matrix : Default (MPEG)
    Codec ID : XVID
    Codec ID/Hint : XviD
    Duration : 1 h 39 min
    Bit rate : 1 774 kb/s
    Width : 720 pixels
    Height : 304 pixels
    Display aspect ratio : 2.35: 1
    Frame rate : 23.976 (24000/1001) FPS
    Color space : YUV
    Chroma subsampling : 4: 2: 0
    Bit depth : 8 bits
    Scan type : Progressive
    Compression mode : Lossy
    Bits/(Pixel*Frame) : 0.338
    Stream size : 1.23 GiB (82%)
    Writing library : XviD 1.2.1 (UTC 2008-12-04)
    Audio
    ID : 1
    Format : AC-3
    Format/Info : Audio Coding 3
    Format settings, Endianness : Big
    Codec ID : 2000
    Duration : 1 h 39 min
    Bit rate mode : Constant
    Bit rate : 384 kb/s
    Channel(s) : 2 channels
    Channel positions : Front: L R
    Sampling rate : 48.0 kHz
    Frame rate : 31.250 FPS (1536 SPF)
    Bit depth : 16 bits
    Compression mode : Lossy
    Stream size : 272 MiB (18%)
    Alignment : Split accross interleaves
    Interleave, duration : 42 ms (1.00 video frame)
    Interleave, preload duratio : 500 ms
    Service kind : Complete Main

    Скриншоты для ознакомления



    Все одноименные релизы в Клубе
    Время раздачи: Пн-Пт с 18: 00 до 23: 00, Сб-Вс с 10: 00 до 23: 30 (до появления первых 3-5 скачавших)

    Онлайн видео Мой любимый динозавр



    Мой любимый динозавр/My Pet Dinosaur (2017) WEB-DLRip [MVO] [AD]
    загрузка...
    Рейтинг →
     (голосов: 1, оценка 3/5, голосовать можно 1 раз )

    Другие торренты по теме:

  • Мой любимый папа (2014) SATRip (серии 1- из 8) (обновляемая) скачать через торрент бесплатно
  • Евгений Росс (Чужой) - Любимый шансон (2010) 2CD [MP3|320 кб / с]<Шансон> скачать через торрент бесплатно
  • Журнал | Мой любимый дом №1 (январь 2016) [PDF] скачать через торрент бесплатно
  • Журнал | Мой любимый дом №12 (декабрь 2015) [PDF] скачать через торрент бесплатно
  • Журнал | Твой любимый дом №10 (2015) [PDF]
  • Журнал | Моя любимая дача. Спецвыпуск №3. Мой любимый огород (март 2016) [PDF]
  • VA - Мой Любимый Русский Рок (2016) [MP3|128-320 кб / с] <Rock>
  • Журнал | Мой любимый дом №2 (Февраль 2016) [PDF]


    • Комментарии (0):

      Информация

      Информация

        Посетители, находящиеся в группе Гости, не могут оставлять комментарии в данной новости.

        ↓ Меню




        ↓ Опрос

        Вы добавили сайт в закладки?
        Да
        Нет


        Top 10 за месяц (Фильмы)