.
Авторизация | Регистрация
Хочешь лучшие торренты? Добавь свой email!
Добавить

Торрент скачать бесплатно

» » Герой / The Hero (2017) HDRip [MVO] [AD] торрент скачать бесплатно




    Герой / The Hero (2017) HDRip [MVO] [AD] торрент скачать бесплатно

    Опубликовал: Админ | Дата: 11-09-2017, 05:00 | Просмотров: 0

    Производство: США/Houston King Productions, Northern Lights Films, Northern Lights Films and Media Ventures
    Жанр: Драма, Комедия
    Режиссер: Бретт Хейли

    Актеры
    Кристен Риттер, Кэтрин Росс, Ник Офферман, Сэм Эллиотт, Фрэнк Коллисон, Мей Меланкон, Кристофер Мэй, Барбара Сколаро, Тодд Гибенхейн, Кэндис Коук, Джеки Джойнер, Лора Припон

    Описание

    Ли Хейден - стареющая звезда с золотым голосом, но лучшие его работы остались далеко в прошлом. Он проводит свои дни, вспоминая старую славу и покуривая травку со своим бывшим партнёром по сцене и нынешним наркодилером, Джереми, пока неожиданный диагноз рака не определяет его приоритеты. Вскоре он завязывает захватывающие, спорные отношения с комиком Шарлоттой и пытается воссоединиться со своей дочерью, Люси, желая найти решающую роль и преподнести своё наследие людям.

    Рейтинг MPAA: R (лицам до 17 лет обязательно присутствие взрослого)
    Дата мировой премьеры: 21 января 2017
    Продолжительность: 01: 38: 54
    Качество видео: HDRip
    Перевод: Многоголосый закадровый (MUZOBOZ)
    Субтитры: отсутствуют
    Реклама: присутствуют аудио и видео вставки рекламы
    Видео: Xvid, 720x304, ~1651 Kbps
    Аудио: AC3, 2 ch, 448 Kbps

    General
    Complete name : D: Zona DownloadsThe.hero.2017.P.HDRip.14OOMB.avi
    Format : AVI
    Format/Info : Audio Video Interleave
    File size : 1.46 GiB
    Duration : 1 h 38 min
    Overall bit rate : 2 109 kb/s
    Writing application : VirtualDubMod 1.5.10.2 (build 2540/release)
    Writing library : VirtualDubMod build 2540/release
    Video
    ID : 0
    Format : MPEG-4 Visual
    Format profile : Advanced Simple@L5
    Format settings, BVOP : 2
    Format settings, QPel : No
    Format settings, GMC : No warppoints
    Format settings, Matrix : Default (MPEG)
    Codec ID : XVID
    Codec ID/Hint : XviD
    Duration : 1 h 38 min
    Bit rate : 1 651 kb/s
    Width : 720 pixels
    Height : 304 pixels
    Display aspect ratio : 2.35: 1
    Frame rate : 23.976 (24000/1001) FPS
    Color space : YUV
    Chroma subsampling : 4: 2: 0
    Bit depth : 8 bits
    Scan type : Progressive
    Compression mode : Lossy
    Bits/(Pixel*Frame) : 0.315
    Stream size : 1.14 GiB (78%)
    Writing library : XviD 1.2.1 (UTC 2008-12-04)
    Audio
    ID : 1
    Format : AC-3
    Format/Info : Audio Coding 3
    Format settings, Endianness : Big
    Codec ID : 2000
    Duration : 1 h 38 min
    Bit rate mode : Constant
    Bit rate : 448 kb/s
    Channel(s) : 2 channels
    Channel positions : Front: L R
    Sampling rate : 48.0 kHz
    Frame rate : 31.250 FPS (1536 SPF)
    Bit depth : 16 bits
    Compression mode : Lossy
    Stream size : 317 MiB (21%)
    Alignment : Split accross interleaves
    Interleave, duration : 42 ms (1.00 video frame)
    Interleave, preload duratio : 500 ms
    Service kind : Complete Main

    Скриншоты для ознакомления



    Все одноименные релизы в Клубе
    Время раздачи: Пн-Пт с 18: 00 до 23: 00, Сб-Вс с 10: 00 до 23: 30 (до появления первых 3-5 скачавших)

    Онлайн видео Герой



    Герой/The Hero (2017) HDRip [MVO] [AD]
    загрузка...
    Рейтинг →
     (голосов: 1, оценка 5/5, голосовать можно 1 раз )

    Другие торренты по теме:

  • Герой / Hero (1992) WEB-DLRip [H.264] скачать через торрент бесплатно
  • Герой / Hero (2015) WEB-DLRip [H.264 / 720p-LQ]
  • Герой / Hero (1992) WEB-DLRip
  • Yuuki Yuuna wa Yuusha de Aru / Yuuki Yuna is a Hero / Герой Юки Юна [2014, TV, 1 из >12] HDTV 720p Hi10p raw
  • Yuuki Yuuna wa Yuusha de Aru / Yuuki Yuna is a Hero / Герой Юки Юна (2014, TV, 3 из 12) HDTV 720p rus скачать через торрент бесплатно
  • Герой цветного города / The Hero of Color City (2014) BDRip [720p] [EN / EN Sub] скачать через торрент бесплатно
  • Yuuki Yuuna wa Yuusha de Aru / Yuuki Yuna is a Hero / Герой Юки Юна [2014, TV, 2 из 12] BDrip 1080p Hi10p raw скачать через торрент бесплатно
  • Гайвер 2: Темный герой / The Guyver: Dark Hero (1994) WEB-DL [H.264 / 720p-LQ] скачать через торрент бесплатно


    • Комментарии (0):

      Информация

      Информация

        Посетители, находящиеся в группе Гости, не могут оставлять комментарии в данной новости.

        ↓ Меню




        ↓ Опрос

        Вы добавили сайт в закладки?
        Да
        Нет


        Top 10 за месяц (Фильмы)