.
Авторизация | Регистрация
Хочешь лучшие торренты? Добавь свой email!
Добавить

Торрент скачать бесплатно

» » Трансформеры: Последний рыцарь / Transformers: The Last Knight (2017) HDTVRip [H.264 / 1080p-LQ] [Line] [AD] торрент скачать бесплатно




    Трансформеры: Последний рыцарь / Transformers: The Last Knight (2017) HDTVRip [H.264 / 1080p-LQ] [Line] [AD] торрент скачать бесплатно

    Опубликовал: Админ | Дата: 11-09-2017, 05:00 | Просмотров: 0

    Производство: США, Di Bonaventura Pictures, Hasbro Inc., Huahua Film Media Culture, Ian Bryce Productions, Paramount Pictures, Tom DeSanto/Don Murphy Production
    Жанр: Фантастика, Боевик
    Режиссер: Майкл Бэй
    Продюсер: Майкл Бэй, Йен Брайс, Мэттью Кохан

    Актеры
    Марк Уолберг, Энтони Хопкинс, Лора Хэддок, Изабела Монер, Джош Дюамель, Джон Гудмен, Стэнли Туччи, Джон Туртурро, Жан Дюжарден, Кен Ватанабе, Гил Бирмингем, Сантьяго Кабрера, Джон Ди Маджио, Питер Каллен, Митч Пиледжи, Стивен Хоган

    Описание

    После битвы в Гонконге Оптимус Прайм сталкивается с новой угрозой, с которой он не может бороться в одиночку. Таким образом, он должен искать новых союзников, чтобы спасти Землю и Вселенную. В то время как Оптимус покидает Землю, Бамблби, Хаунд, Дрифт, Кроссхейз, Трейлбрекер, Блёр и Диноботы пытаются помешать Гальватрону построить космический мост, чтобы он не смог принести на Землю большую опасность. В то же время люди возобновляют создание Трансформеров, чтобы помочь Автоботам.

    Возраст: 12+ (зрителям, достигшим 16 лет)
    Рейтинг MPAA: PG-13 (детям до 13 лет просмотр нежелателен)
    Дата мировой премьеры: 21 июня 2017
    Дата российской премьеры: 22 июня 2017, Централ Партнершип
    Продолжительность: 02: 27: 17
    Качество видео: HDTVRip
    Перевод: Дублированный (Чистый звук)
    Субтитры: Корейские (вшитые неотключаемые)
    Реклама: Присутствуют аудио и текстовые вставки рекламы, вставки видео вырезаны
    Видео: AVC/H.264, 1920x976, 4933 kbps, 23.976 fps
    Аудио: 48 kHz, AC3 Dolby Digital, 2/0 (L, R) ch, ~384 kbps
    Общее
    Уникальный идентификатор : 241690564495374676329055265029139568640 (0xB5D3E8D7DBF3111D8059A2A91A619800)
    Полное имя : D: Трансформеры.Последний.рыцарь.2017.HDTVRip.1080p.NNMClub.mkv
    Формат : Matroska
    Версия формата : Version 4/Version 2
    Размер файла : 5, 48 Гбайт
    Продолжительность : 2 ч. 27 м.
    Режим общего битрейта : Переменный
    Общий поток : 5319 Кбит/сек
    Дата кодирования : UTC 2017-09-10 15: 33: 32
    Программа кодирования : mkvmerge v8.3.0 (\'Over the Horizon\') 64bit
    Библиотека кодирования : libebml v1.3.1 + libmatroska v1.4.2
    Видео
    Идентификатор : 1
    Формат : AVC
    Формат/Информация : Advanced Video Codec
    Профиль формата : High@L4.1
    Параметр CABAC формата : Да
    Параметр ReFrames формата : 4 кадра
    Идентификатор кодека : V_MPEG4/ISO/AVC
    Продолжительность : 2 ч. 27 м.
    Вид битрейта : Переменный
    Битрейт : 4933 Кбит/сек
    Максимальный битрейт : 5500 Кбит/сек
    Ширина : 1920 пикселей
    Высота : 976 пикселей
    Соотношение сторон : 1, 967
    Режим частоты кадров : Постоянный
    Частота кадров : 23, 976 (24000/1001) кадра/сек
    Стандарт вещания : Component
    Цветовое пространство : YUV
    Субдискретизация насыщенности : 4: 2: 0
    Битовая глубина : 8 бит
    Тип развёртки : Прогрессивная
    Бит/(Пиксели*Кадры) : 0.110
    Размер потока : 5, 08 Гбайт (93%)
    Язык : English
    Default : Да
    Forced : Нет
    Цветовой диапазон : Limited
    Основные цвета : BT.709
    Характеристики трансфера : BT.709
    Коэффициенты матрицы : BT.709
    Аудио
    Идентификатор : 2
    Формат : AC-3
    Формат/Информация : Audio Coding 3
    Расширение режима : CM (complete main)
    Параметр Endianness формата : Big
    Идентификатор кодека : A_AC3
    Продолжительность : 2 ч. 27 м.
    Вид битрейта : Постоянный
    Битрейт : 384 Кбит/сек
    Каналы : 2 канала
    Расположение каналов : Front: L R
    Частота : 48, 0 КГц
    Частота кадров : 31, 250 кадров/сек (1536 spf)
    Метод сжатия : С потерями
    Задержка видео : 17 мс.
    Размер потока : 405 Мбайт (7%)
    Язык : Russian
    Default : Да
    Forced : Нет

    Скриншоты для ознакомления



    Все одноименные релизы в Клубе
    Время раздачи: 24/7 (до появления первых 3-5 скачавших)

    Онлайн видео Трансформеры: Последний рыцарь



    Трансформеры: Последний рыцарь/Transformers: The Last Knight (2017) HDTVRip [H.264/1080p-LQ] [Line] [AD]
    загрузка...
    Рейтинг →
     (голосов: 1, оценка 4/5, голосовать можно 1 раз )

    Другие торренты по теме:

  • Трансформеры: Последний рыцарь / Transformers: The Last Knight (2017) BDRip 3D [H.264 / 1080p] [Вертикальная анаморфная стереопара]
  • Трансформеры: Последний рыцарь / Transformers: The Last Knight (2017) BDRip 3D [H.264 / 1080p] [вертикальная анаморфная стереопара] [hand made 16:9]
  • Трансформеры: Последний рыцарь / Transformers: The Last Knight (2017) WEBRip [H.264 / 1080p] [Трейлер]
  • Трансформеры: Последний рыцарь / Transformers: The Last Knight (2017) TS [AD]
  • Трансформеры: Последний рыцарь / Transformers: The Last Knight (2017) TS [H.264 / 720p] [Звук с TS] [AD]
  • Трансформеры: Последний рыцарь / Transformers: The Last Knight (2017) WEBRip [H.264 / 1080p-LQ] [MVO] [AD]
  • Трансформеры: Последний рыцарь / Transformers: The Last Knight (2017) WEBRip [Звук с TS] [AD]
  • Трансформеры: Последний рыцарь / Transformers: The Last Knight (2017) WEBRip [H.264 / 1080p] [Звук с TS] [AD]


    • Комментарии (0):

      Информация

      Информация

        Посетители, находящиеся в группе Гости, не могут оставлять комментарии в данной новости.

        ↓ Меню




        ↓ Опрос

        Вы добавили сайт в закладки?
        Да
        Нет


        Top 10 за месяц (Фильмы)