.
Авторизация | Регистрация
Хочешь лучшие торренты? Добавь свой email!
Добавить

Торрент скачать бесплатно

» » Пираты Карибского моря: Мертвецы не рассказывают сказки / Pirates of the Caribbean: Dead Men Tell No Tales (2017) WEB-DLRip [H.264 / 1080p-LQ] [Line] [AD] торрент скачать бесплатно




    Пираты Карибского моря: Мертвецы не рассказывают сказки / Pirates of the Caribbean: Dead Men Tell No Tales (2017) WEB-DLRip [H.264 / 1080p-LQ] [Line] [AD] торрент скачать бесплатно

    Опубликовал: Админ | Дата: 11-09-2017, 05:00 | Просмотров: 0

    Производство: США, Walt Disney Pictures
    Жанр: Фэнтези, боевик, комедия, приключения
    Режиссер: Хоаким Роннинг, Эспен Сандберг
    Продюсер: Джерри Брукхаймер, Джозеф М. Карачиоло мл., Чад Оман

    Актеры
    Джонни Депп, Кира Найтли, Кая Скоделарио, Дэвид Уэнэм, Орландо Блум, Джеффри Раш, Брентон Туэйтс, Хавьер Бардем, Голшифте Фарахани, Стивен Грэм

    Описание

    Исчерпавший свою удачу капитан Джек Воробей обнаруживает, что за ним охотится его старый неприятель, ужасный капитан Салазар и его призрачные пираты. Они только что сбежали из Дьявольского треугольника и намерены уничтожить всех пиратов, включая Джека. Поможет спастись лишь могущественный артефакт — трезубец Посейдона, который дарует своему обладателю полный контроль над морями.

    Возраст: 16+ (зрителям, достигшим 16 лет)
    Рейтинг MPAA: PG-13 (детям до 13 лет просмотр нежелателен)
    Дата мировой премьеры: 11 мая 2017
    Дата премьеры в России: 25 мая 2017, WDSSPR
    Дата выхода Blu-Ray/DVD релиза: 19 сентября 2017, Уолт Дисней Компани СНГ

    Продолжительность: 02: 09: 06
    Качество видео: WEB-DLRip
    Перевод: Дублированный (Чистый звук)
    Субтитры: Отсутствуют
    Реклама: Присутствуют аудио и текстовые вставки рекламы, вставки видео вырезаны
    Видео: AVC/H.264, 1920x800 (2.40: 1), 4987 kbps, 23.976 fps
    Аудио: 48 kHz, AC3 Dolby Digital, 2/0 (L, R) ch, ~384 kbps
    Общее
    Уникальный идентификатор : 227618243595251091811281499060756550615 (0xAB3DADDAFF741101AEAA479BC0AC13D7)
    Полное имя : D: Пираты.Карибского.моря.Мертвецы.не.рассказывают.сказки.2017.WEB-DLRip.1080p.NNMClub.mkv
    Формат : Matroska
    Версия формата : Version 4/Version 2
    Размер файла : 4, 85 Гбайт
    Продолжительность : 2 ч. 9 м.
    Режим общего битрейта : Переменный
    Общий поток : 5373 Кбит/сек
    Дата кодирования : UTC 2017-09-10 15: 51: 13
    Программа кодирования : mkvmerge v8.3.0 (\'Over the Horizon\') 64bit
    Библиотека кодирования : libebml v1.3.1 + libmatroska v1.4.2
    Видео
    Идентификатор : 2
    Формат : AVC
    Формат/Информация : Advanced Video Codec
    Профиль формата : High@L4.1
    Параметр CABAC формата : Да
    Параметр ReFrames формата : 5 кадров
    Идентификатор кодека : V_MPEG4/ISO/AVC
    Продолжительность : 2 ч. 9 м.
    Вид битрейта : Переменный
    Битрейт : 4987 Кбит/сек
    Максимальный битрейт : 5500 Кбит/сек
    Ширина : 1920 пикселей
    Высота : 800 пикселей
    Соотношение сторон : 2, 40: 1
    Режим частоты кадров : Постоянный
    Частота кадров : 23, 976 (24000/1001) кадра/сек
    Стандарт вещания : Component
    Цветовое пространство : YUV
    Субдискретизация насыщенности : 4: 2: 0
    Битовая глубина : 8 бит
    Тип развёртки : Прогрессивная
    Бит/(Пиксели*Кадры) : 0.135
    Размер потока : 4, 50 Гбайт (93%)
    Язык : Russian
    Default : Да
    Forced : Нет
    Цветовой диапазон : Limited
    Основные цвета : BT.709
    Характеристики трансфера : BT.709
    Коэффициенты матрицы : BT.709
    Аудио
    Идентификатор : 1
    Формат : AC-3
    Формат/Информация : Audio Coding 3
    Расширение режима : CM (complete main)
    Параметр Endianness формата : Big
    Идентификатор кодека : A_AC3
    Продолжительность : 2 ч. 9 м.
    Вид битрейта : Постоянный
    Битрейт : 384 Кбит/сек
    Каналы : 2 канала
    Расположение каналов : Front: L R
    Частота : 48, 0 КГц
    Частота кадров : 31, 250 кадров/сек (1536 spf)
    Метод сжатия : С потерями
    Задержка видео : 17 мс.
    Размер потока : 355 Мбайт (7%)
    Язык : English
    Default : Да
    Forced : Нет

    Скриншоты для ознакомления



    Все одноименные релизы в Клубе
    Время раздачи: 24/7 (до появления первых 3-5 скачавших)

    Онлайн видео Пираты Карибского моря: Мертвецы не рассказывают сказки



    Пираты Карибского моря: Мертвецы не рассказывают сказки/Pirates of the Caribbean: Dead Men Tell No Tales (2017) WEB-DLRip [H.264/1080p-LQ] [Line] [AD]
    загрузка...
    Рейтинг →
     (голосов: 1, оценка 4/5, голосовать можно 1 раз )

    Другие торренты по теме:

  • Пираты Карибского моря: Квадрология / Pirates of the Caribbean: Quadrilogy (2003,2006,2007,2011) BDRip [720p] скачать через торрент бесплатно
  • Пираты Карибского моря: Квадрология / Pirates of the Caribbean: Quadrilogy (2003-2011) HDRip [H.264] [MP4|960х400] скачать через торрент бесплатно
  • Пираты Карибского моря: Проклятие Черной жемчужины / Pirates of the Caribbean: The Curse of the Black Pearl (2003) BDRip [H.264 / 1080p-LQ]
  • Пираты Карибского моря: Сундук мертвеца / Pirates of the Caribbean: Dead Mans Chest (2006) BDRip [H.264 / 1080p-LQ]
  • Пираты Карибского моря: На краю Света / Pirates of the Caribbean: At Worlds End (2007) BDRip [H.264 / 1080p-LQ]
  • Пираты Карибского моря: На странных берегах / Pirates Of The Caribbean: On Stranger Tides (2011) HDRip [AVO]
  • Пираты Карибского моря: Проклятие Черной жемчужины / Pirates of the Caribbean: The Curse of the Black Pearl (2003) BDRip [H.265 / 1080p] [US Edition]
  • Пираты Карибского моря: На краю Света / Pirates of the Caribbean: At Worlds End (2007) BDRip [H.265 / 1080p-LQ]


    • Комментарии (0):

      Информация

      Информация

        Посетители, находящиеся в группе Гости, не могут оставлять комментарии в данной новости.

        ↓ Меню




        ↓ Опрос

        Вы добавили сайт в закладки?
        Да
        Нет


        Top 10 за месяц (Фильмы)