.
Авторизация | Регистрация
Хочешь лучшие торренты? Добавь свой email!
Добавить

Торрент скачать бесплатно

» » Воин-изгой: Робот-боец / Rogue Warrior: Robot Fighter (2017) DVDRip [MVO] [AD] торрент скачать бесплатно




    Воин-изгой: Робот-боец / Rogue Warrior: Robot Fighter (2017) DVDRip [MVO] [AD] торрент скачать бесплатно

    Опубликовал: Админ | Дата: 11-09-2017, 05:00 | Просмотров: 0

    Производство: США/Empire Motion pictures, Pacific Coast Entertainment
    Жанр: Фантастика, Боевик
    Режиссер: Нил Джонсон

    Актеры
    Трэйси Бердсалл, Уильям Кирчер, Дэз Кроуфорд, Стефен Мэнли, Тим МакГрат, Эшли М. Уильямс, Ливвай Штубенраух, Аарон Жак, Мэрилин Гильотти, Эрин Бети

    Описание

    Воин-изгой: Робот-боец - это научно-фантастический фильм, действия которого происходят в далеком будущем и показывают ниспровержение человечества искусственным интеллектом на Земле и в других мирах.

    Дата мировой премьеры: 2 июня 2017
    Продолжительность: 01: 41: 59
    Качество видео: DVDRip
    Перевод: Многоголосый закадровый (Синема УС)
    Субтитры: отсутствуют
    Реклама: присутствуют текстовые вставки рекламы
    Видео: Xvid, 720x368, ~1840 Kbps
    Аудио: AC3, 2 ch, 192 Kbps

    General
    Complete name : D: Zona DownloadsRogue Warrior Robot Fighter (2017).avi
    Format : AVI
    Format/Info : Audio Video Interleave
    Format profile : OpenDML
    File size : 1.46 GiB
    Duration : 1 h 41 min
    Overall bit rate : 2 043 kb/s
    Writing application : Lavf57.71.100
    Comment : Rip by Basma4i
    Video
    ID : 0
    Format : MPEG-4 Visual
    Format profile : Advanced Simple@L5
    Format settings, BVOP : No
    Format settings, QPel : No
    Format settings, GMC : No warppoints
    Format settings, Matrix : Default (H.263)
    Codec ID : XVID
    Codec ID/Hint : XviD
    Duration : 1 h 41 min
    Bit rate : 1 840 kb/s
    Width : 720 pixels
    Height : 368 pixels
    Display aspect ratio : 1.957
    Frame rate : 23.976 (24000/1001) FPS
    Color space : YUV
    Chroma subsampling : 4: 2: 0
    Bit depth : 8 bits
    Scan type : Progressive
    Compression mode : Lossy
    Bits/(Pixel*Frame) : 0.290
    Stream size : 1.31 GiB (90%)
    Writing library : XviD 67
    Audio
    ID : 1
    Format : AC-3
    Format/Info : Audio Coding 3
    Format settings, Endianness : Big
    Codec ID : 2000
    Duration : 1 h 41 min
    Bit rate mode : Constant
    Bit rate : 192 kb/s
    Channel(s) : 2 channels
    Channel positions : Front: L R
    Sampling rate : 48.0 kHz
    Frame rate : 31.250 FPS (1536 SPF)
    Bit depth : 16 bits
    Compression mode : Lossy
    Stream size : 140 MiB (9%)
    Alignment : Aligned on interleaves
    Interleave, duration : 32 ms (0.77 video frame)
    Service kind : Complete Main

    Скриншоты для ознакомления



    Все одноименные релизы в Клубе
    Время раздачи: Пн-Пт с 18: 00 до 23: 00, Сб-Вс с 10: 00 до 23: 30 (до появления первых 3-5 скачавших)

    Онлайн видео Воин-изгой: Робот-боец



    Воин-изгой: Робот-боец/Rogue Warrior: Robot Fighter (2017) DVDRip [MVO] [AD]
    загрузка...
    Рейтинг →
     (голосов: 1, оценка 3/5, голосовать можно 1 раз )

    Другие торренты по теме:



      Комментарии (0):

      Информация

      Информация

        Посетители, находящиеся в группе Гости, не могут оставлять комментарии в данной новости.

        ↓ Меню




        ↓ Опрос

        Вы добавили сайт в закладки?
        Да
        Нет


        Top 10 за месяц (Фильмы)