.
Авторизация | Регистрация
Хочешь лучшие торренты? Добавь свой email!
Добавить

Торрент скачать бесплатно

» » Гвиана / Гайана / Guyane (2017) BDRip [H.264 / 1080p-LQ] (сезон 1, серии 1-8 из 8) Baibako торрент скачать бесплатно




    Гвиана / Гайана / Guyane (2017) BDRip [H.264 / 1080p-LQ] (сезон 1, серии 1-8 из 8) Baibako торрент скачать бесплатно

    Опубликовал: Админ | Дата: 10-09-2017, 11:46 | Просмотров: 0

    Производство: Франция, Mascaret Films
    Жанр: Приключения, Драма
    Режиссер: Ким Шапирон, Филипп Трибуа, Фабьен Нури

    Актеры
    Стани Коппет, Мэтью Спинози, Оливье Рабурден, Анна Суарес, Исака Савадого, Нунес Де Мелу Маурийу, Флора Бонфанти, Дианье Тиа, Сантос Кардосо Рубенс, Кваджани Белисонг

    Описание

    Чтобы не вылететь из университета, молодой геолог отправляется на стажировку в далёкую Гвиану. Этот экзотический кусок французской земли, расположенный в джунглях на северо-востоке Южной Америки, — настоящая жила для золотодобывающих компаний, а также всякого рода проходимцев и словно птица изгоев, готовых убить за самородок. Здесь герою придётся сдавать экзамен на умение выживать в экстремальных условиях, и завал такого испытания грозит уже не отчислением, а настоящей гибелью.

    Продолжительность: ~ 00: 45: 00 серия
    Качество видео: BDRip
    Перевод: Многоголосый закадровый, профессиональный - Baibako
    Субтитры: Французские
    Реклама: Релиз без рекламы
    Видео: AVC/H.264, 1920x960, ~8301 Kbps
    Аудио 1: AC3, 6 ch, 640 Kbps - русский, многоголосый закадровый
    Аудио 2: AC3, 6 ch, 640 Kbps - французский

    General
    Unique ID : 233712995020857107438626944386159459457 (0xAFD37C4D066B4A03B81F4EC641EDBC81)
    Complete name : Guyane.s01e01.HD1080p.BluRay.Rus.Fre.BaibaKo.mkv
    Format : Matroska
    Format version : Version 2
    File size : 3.20 GiB
    Duration : 47mn 49s
    Overall bit rate : 9 585 Kbps
    Encoded date : UTC 2017-07-12 21: 57: 36
    Writing application : mkvmerge v7.8.0 (\'River Man\') 32bit built on Apr 3 2015 12: 11: 22
    Writing library : libebml v1.3.1 + libmatroska v1.4.2
    Video
    ID : 1
    Format : AVC
    Format/Info : Advanced Video Codec
    Format profile : High@L4.1
    Format settings, CABAC : Yes
    Format settings, ReFrames : 4 frames
    Codec ID : V_MPEG4/ISO/AVC
    Duration : 47mn 49s
    Bit rate : 8 301 Kbps
    Width : 1 920 pixels
    Height : 960 pixels
    Display aspect ratio : 2.000
    Frame rate mode : Constant
    Frame rate : 25.000 fps
    Color space : YUV
    Chroma subsampling : 4: 2: 0
    Bit depth : 8 bits
    Scan type : Progressive
    Bits/(Pixel*Frame) : 0.180
    Stream size : 2.71 GiB (85%)
    Writing library : x264 core 148 r2762 90a61ec
    Encoding settings : cabac=1/ref=4/deblock=1: -2: -2/analyse=0x3: 0x133/me=umh/subme=9/psy=1/psy_rd=1.00: 0.00/mixed_ref=1/me_range=16/chroma_me=1/trellis=2/8x8dct=1/cqm=0/deadzone=21, 11/fast_pskip=0/chroma_qp_offset=-2/threads=30/lookahead_threads=2/sliced_threads=0/nr=0/decimate=1/interlaced=0/bluray_compat=0/constrained_intra=0/bframes=3/b_pyramid=2/b_adapt=1/b_bias=0/direct=3/weightb=1/open_gop=0/weightp=2/keyint=250/keyint_min=25/scenecut=40/intra_refresh=0/rc_lookahead=50/rc=2pass/mbtree=1/bitrate=8301/ratetol=1.0/qcomp=0.60/qpmin=0/qpmax=69/qpstep=4/cplxblur=20.0/qblur=0.5/ip_ratio=1.40/aq=1: 1.00
    Language : French
    Default : Yes
    Forced : No
    Audio #1
    ID : 2
    Format : AC-3
    Format/Info : Audio Coding 3
    Mode extension : CM (complete main)
    Format settings, Endianness : Big
    Codec ID : A_AC3
    Duration : 47mn 49s
    Bit rate mode : Constant
    Bit rate : 640 Kbps
    Channel(s) : 6 channels
    Channel positions : Front: L C R, Side: L R, LFE
    Sampling rate : 48.0 KHz
    Frame rate : 31.250 fps (1536 spf)
    Compression mode : Lossy
    Stream size : 219 MiB (7%)
    Language : Russian
    Default : Yes
    Forced : No
    Audio #2
    ID : 3
    Format : AC-3
    Format/Info : Audio Coding 3
    Mode extension : CM (complete main)
    Format settings, Endianness : Big
    Codec ID : A_AC3
    Duration : 47mn 49s
    Bit rate mode : Constant
    Bit rate : 640 Kbps
    Channel(s) : 6 channels
    Channel positions : Front: L C R, Side: L R, LFE
    Sampling rate : 48.0 KHz
    Frame rate : 31.250 fps (1536 spf)
    Compression mode : Lossy
    Stream size : 219 MiB (7%)
    Language : French
    Default : No
    Forced : No
    Text
    ID : 4
    Format : UTF-8
    Codec ID : S_TEXT/UTF8
    Codec ID/Info : UTF-8 Plain Text
    Language : French
    Default : No
    Forced : No
    Menu
    00: 00: 00.000 : fr: Chapter 1
    00: 08: 27.520 : fr: Chapter 2
    00: 14: 10.520 : fr: Chapter 3
    00: 26: 25.000 : fr: Chapter 4
    00: 32: 42.959 : fr: Chapter 5
    00: 40: 53.360 : fr: Chapter 6

    Скриншоты для ознакомления




    Все одноименные релизы в Клубе
    Время раздачи: 24/7 (круглосуточно) до появления первых 3-5 скачавших (до появления первых 3-5 скачавших)

    Гвиана/Гайана/Guyane (2017) BDRip [H.264/1080p-LQ] (сезон 1, серии 1-8 из 8) Baibako
    загрузка...
    Рейтинг →
     (голосов: 1, оценка 5/5, голосовать можно 1 раз )

    Другие торренты по теме:

  • Гвиана / Гайана / Guyane (2017) BDRip [H.264 / 720p-LQ] (сезон 1, серии 1-8 из 8) Baibako


    • Комментарии (0):

      Информация

      Информация

        Посетители, находящиеся в группе Гости, не могут оставлять комментарии в данной новости.

        ↓ Меню




        ↓ Опрос

        Вы добавили сайт в закладки?
        Да
        Нет


        Top 10 за месяц (Фильмы)