.
Авторизация | Регистрация
Хочешь лучшие торренты? Добавь свой email!
Добавить

Торрент скачать бесплатно

» » Нарко / Нарки / Барыги / Narcos (2017) WEBRip [H.264 / 720p-LQ] (сезон 3, серии 1-10 из 10) NewStudio торрент скачать бесплатно




    Нарко / Нарки / Барыги / Narcos (2017) WEBRip [H.264 / 720p-LQ] (сезон 3, серии 1-10 из 10) NewStudio торрент скачать бесплатно

    Опубликовал: Админ | Дата: 10-09-2017, 11:46 | Просмотров: 0

    Производство: США, Колумбия | NetFlix, Gaumont International Television
    Жанр: драма, криминал
    Режиссер: Габриэль Рипштейн, Йозеф Владика, Фернандо Коимбра, Энди Байз

    Актеры
    Педро Паскаль, Дамиан Алькасар, Альберто Амманн, Франсиско Денис, Матиас Варела, Хавьер Камара, Андреа Лондо, Эрик Ланге, Керри Бише, Майкл Стал-Дэвид и др.

    Описание

    Новый противник Хавьера Пенья очень серьезный и более проворный и образованней в сравнении с предыдущим. Потому что в случае Медельинского картеля — это были не образованные, но наделены хорошим логическим мышление люди, то в случае с Калийским картелем все совершенно противоположно. Во главе Калийского картеля состоят только образованные и очень успешные люди, очень многие из них хорошо знакомы с бухгалтерией, так как имели большой опыт работы бухгалтерами, знающими как правильно и без особых проблем скрыть лишних доход и правильно провести это по официальным документам.

    Возраст: 18+ (зрителям, достигшим 18 лет. запрещено для детей)
    Продолжительность: ~00: 55: 00 серия
    Качество видео: WEBRip
    Перевод: Многоголосый закадровый, профессиональный - NewStudio (ненормативная лексика)
    Субтитры: Русские (форсированные), английские
    Реклама: Отсутствует
    Внимание! Ненормативная лексика!
    Видео: AVC/H.264, 1280x720 (16: 9), ~2610 kbps
    Аудио 1: AC3, 6 ch, 384 kbps - русский, многоголосый закадровый
    Аудио 2: AC3, 6 ch, 384 kbps - английский

    General
    Unique ID : 246279728825049862602637518971558882098 (0xB947C01D18A24AC5A3C9D00B363EEB32)
    Complete name : D: 1_ENGLISHNarcos S 03 NewStudio 720pNarcos.s03e01.WEBRip.720p.NewStudio.mkv
    Format : Matroska
    Format version : Version 2
    File size : 1.28 GiB
    Duration : 54 min 35 s
    Overall bit rate mode : Variable
    Overall bit rate : 3 359 kb/s
    Encoded date : UTC 2017-09-04 11: 57: 24
    Writing application : mkvmerge v7.8.0 (\'River Man\') 32bit built on Apr 3 2015 12: 11: 22
    Writing library : libebml v1.3.1 + libmatroska v1.4.2
    Video
    ID : 1
    Format : AVC
    Format/Info : Advanced Video Codec
    Format profile : Main@L3.1
    Format settings, CABAC : Yes
    Format settings, ReFrames : 3 frames
    Codec ID : V_MPEG4/ISO/AVC
    Duration : 54 min 35 s
    Bit rate mode : Variable
    Bit rate : 2 610 kb/s
    Maximum bit rate : 3 915 kb/s
    Width : 1 280 pixels
    Height : 720 pixels
    Display aspect ratio : 16: 9
    Frame rate mode : Constant
    Frame rate : 23.976 (24000/1001) FPS
    Color space : YUV
    Chroma subsampling : 4: 2: 0
    Bit depth : 8 bits
    Scan type : Progressive
    Bits/(Pixel*Frame) : 0.118
    Stream size : 986 MiB (75%)
    Writing library : x264 core 118
    Encoding settings : cabac=1/ref=3/deblock=1: 0: 0/analyse=0x1: 0x111/me=umh/subme=10/psy=1/psy_rd=1.00: 0.00/mixed_ref=1/me_range=24/chroma_me=1/trellis=2/8x8dct=0/cqm=0/deadzone=21, 11/fast_pskip=1/chroma_qp_offset=-2/threads=6/sliced_threads=0/nr=0/decimate=1/interlaced=0/bluray_compat=0/constrained_intra=0/bframes=2/b_pyramid=0/b_adapt=2/b_bias=0/direct=3/weightb=1/open_gop=0/weightp=2/keyint=48/keyint_min=25/scenecut=0/intra_refresh=0/rc_lookahead=0/rc=2pass/mbtree=1/bitrate=2610/ratetol=1.0/qcomp=0.50/qpmin=6/qpmax=51/qpstep=4/cplxblur=20.0/qblur=0.5/vbv_maxrate=3915/vbv_bufsize=5220/nal_hrd=vbr/ip_ratio=1.40/aq=1: 1.00
    Language : English
    Default : Yes
    Forced : No
    Audio #1
    ID : 2
    Format : AC-3
    Format/Info : Audio Coding 3
    Format settings, Endianness : Big
    Codec ID : A_AC3
    Duration : 54 min 35 s
    Bit rate mode : Constant
    Bit rate : 384 kb/s
    Channel(s) : 6 channels
    Channel positions : Front: L C R, Side: L R, LFE
    Sampling rate : 48.0 kHz
    Frame rate : 31.250 FPS (1536 spf)
    Bit depth : 16 bits
    Compression mode : Lossy
    Stream size : 150 MiB (11%)
    Language : Russian
    Service kind : Complete Main
    Default : Yes
    Forced : No
    Audio #2
    ID : 3
    Format : AC-3
    Format/Info : Audio Coding 3
    Format settings, Endianness : Big
    Codec ID : A_AC3
    Duration : 54 min 35 s
    Bit rate mode : Constant
    Bit rate : 384 kb/s
    Channel(s) : 6 channels
    Channel positions : Front: L C R, Side: L R, LFE
    Sampling rate : 48.0 kHz
    Frame rate : 31.250 FPS (1536 spf)
    Bit depth : 16 bits
    Compression mode : Lossy
    Stream size : 150 MiB (11%)
    Language : English
    Service kind : Complete Main
    Default : No
    Forced : No
    Text #1
    ID : 4
    Format : ASS
    Codec ID : S_TEXT/ASS
    Codec ID/Info : Advanced Sub Station Alpha
    Compression mode : Lossless
    Title : Forced
    Language : Russian
    Default : Yes
    Forced : No
    Text #2
    ID : 5
    Format : UTF-8
    Codec ID : S_TEXT/UTF8
    Codec ID/Info : UTF-8 Plain Text
    Title : SDH
    Language : English
    Default : No
    Forced : No

    Скриншоты для ознакомления



    Все одноименные релизы в Клубе
    Время раздачи: 24/7 (до появления первых 3-5 скачавших)

    Нарко/Нарки/Барыги/Narcos (2017) WEBRip [H.264/720p-LQ] (сезон 3, серии 1-10 из 10) NewStudio
    загрузка...
    Рейтинг →
     (голосов: 1, оценка 4/5, голосовать можно 1 раз )

    Другие торренты по теме:

  • Нарко / Нарки / Барыги / Narcos (2016) WEBRip [H.264 / 1080p] (сезон 2, серии 1 из 10) LostFilm (обновляемая)
  • Нарко / Нарки / Барыги / Narcos (2016) WEBRip (сезон 2, серии 1 из 10) LostFilm (обновляемая)
  • Нарко / Нарки / Барыги / Narcos (2016) WEBRip [H.264 / 720p-LQ] (сезон 2, серии 1-10 из 10) Jetvis Studio
  • Нарко / Нарки / Барыги / Narcos (2016) WEBRip (сезон 2, серии 1-10 из 10) NewStudio
  • Нарко / Нарки / Барыги / Narcos (2016) WEBRip [H.264 / 720p-LQ] (сезон 2, серии 1-10 из 10) NewStudio
  • Нарко / Нарки / Барыги / Narcos (2015-2016) WEBRip [H.264] (сезон 1-2, серии 1-20 из 20) LostFilm [MP4|1280x720] [AD]
  • Нарко / Нарки / Барыги / Narcos (2017) WEBRip [H.264] (сезон 3, серии 1-4 из 10) Baibako (обновляемая)
  • Нарко / Нарки / Барыги / Narcos (2017) WEBRip [H.264 / 1080p-LQ] (сезон 3, серии 1-10 из 10) NewStudio


    • Комментарии (0):

      Информация

      Информация

        Посетители, находящиеся в группе Гости, не могут оставлять комментарии в данной новости.

        ↓ Меню




        ↓ Опрос

        Вы добавили сайт в закладки?
        Да
        Нет


        Top 10 за месяц (Фильмы)