.
Авторизация | Регистрация
Хочешь лучшие торренты? Добавь свой email!
Добавить

Торрент скачать бесплатно

» » Нарко / Нарки / Барыги / Narcos (2017) WEBRip [H.264 / 1080p-LQ] (сезон 3, серии 1-10 из 10) NewStudio торрент скачать бесплатно




    Нарко / Нарки / Барыги / Narcos (2017) WEBRip [H.264 / 1080p-LQ] (сезон 3, серии 1-10 из 10) NewStudio торрент скачать бесплатно

    Опубликовал: Админ | Дата: 10-09-2017, 11:46 | Просмотров: 0

    Производство: США, Колумбия, Dynamo, Gaumont International Television, NetFlix
    Жанр: криминал, драма
    Режиссер: Андрес Байс, Гэбриел Рипштейн, Джозеф Владыка, Фернандо Коимбра

    Актеры
    Педро Паскаль, Дамиан Алькасар, Альберто Амман, Франциско Дэнис, Пепе Рапазоте, Матиас Варела, Хавьер Камара, Артуро Кастро, Эрик Ланж, Керри Бише и др.

    Описание

    Новый противник Хавьера Пенья очень серьёзный и более проворный и образованный в сравнении с предыдущим. Если в случае Медельинского картеля — это были не образованные, но наделённые хорошим логическим мышлением люди, то в случае с Калийским картелем всё совершенно противоположно. Во главе Калийского картеля состоят только образованные и очень успешные люди, очень многие из них хорошо знакомы с бухгалтерией, так как имели большой опыт работы бухгалтерами, знающими как правильно и без особых проблем скрыть лишний доход и правильно провести это по официальным документам.

    Возраст: 18+ (зрителям, достигшим 18 лет. О таком странном сюжете не догадывалась даже Тимошенко. запрещено для детей)
    Продолжительность: ~00: 55: 00 серия
    Качество видео: WEBRip
    Перевод: многоголосый закадровый, профессиональный -NewStudio (ненормативная лексика)
    Субтитры: русские (на надписи), английские (полные)
    ВНИМАНИЕ! Присутствует ненормативная лексика.
    Видео: AVC/H.264, 1920x1080, ~5360 Kbps
    Аудио #1: AC3, 384 kbps, 6 ch, 48 kHz - русский, многоголосый закадровый
    Аудио #2: AC3, 384 kbps, 6 ch, 48 kHz - английский
    Общее
    Уникальный идентификатор : 227571541727316312026978501463511378442 (0xAB34AF468D866799A902B21CB7F3AA0A)
    Полное имя : G: Narcos - Нарко. Сезон 3. NewStudio. 1080pNarcos.s03e01.WEBRip.1080p.NewStudio.mkv
    Формат : Matroska
    Версия формата : Version 4/Version 2
    Размер файла : 2, 32 Гбайт
    Продолжительность : 54 м. 35 с.
    Режим общего битрейта : Переменный
    Общий поток : 6092 Кбит/сек
    Название фильма : Narcos s03e01 @ NNM-Club
    Дата кодирования : UTC 2017-09-06 12: 47: 39
    Программа кодирования : mkvmerge v6.9.1 (\'Blue Panther\') 64bit built on Apr 18 2014 18: 23: 38
    Библиотека кодирования : libebml v1.3.0 + libmatroska v1.4.1
    Видео
    Идентификатор : 1
    Формат : AVC
    Формат/Информация : Advanced Video Codec
    Профиль формата : Main@L4
    Параметр CABAC формата : Да
    Параметр RefFrames формата : 3 кадра
    Идентификатор кодека : V_MPEG4/ISO/AVC
    Продолжительность : 54 м. 35 с.
    Вид битрейта : Переменный
    Битрейт : 5360 Кбит/сек
    Максимальный битрейт : 8040 Кбит/сек
    Ширина : 1920 пикселей
    Высота : 1080 пикселей
    Соотношение сторон : 16: 9
    Режим частоты кадров : Постоянный
    Частота кадров : 23, 976 (24000/1001) кадра/сек
    Цветовое пространство : YUV
    Субдискретизация насыщенности : 4: 2: 0
    Битовая глубина : 8 бит
    Тип развёртки : Прогрессивная
    Бит/(Пиксели*Кадры) : 0.108
    Размер потока : 1, 98 Гбайт (85%)
    Библиотека кодирования : x264 core 118
    Настройки программы : cabac=1/ref=3/deblock=1: 0: 0/analyse=0x1: 0x111/me=umh/subme=10/psy=1/psy_rd=1.00: 0.00/mixed_ref=1/me_range=24/chroma_me=1/trellis=2/8x8dct=0/cqm=0/deadzone=21, 11/fast_pskip=1/chroma_qp_offset=-2/threads=6/sliced_threads=0/nr=0/decimate=1/interlaced=0/bluray_compat=0/constrained_intra=0/bframes=2/b_pyramid=0/b_adapt=2/b_bias=0/direct=3/weightb=1/open_gop=0/weightp=2/keyint=48/keyint_min=25/scenecut=0/intra_refresh=0/rc_lookahead=0/rc=2pass/mbtree=1/bitrate=5360/ratetol=1.0/qcomp=0.50/qpmin=6/qpmax=51/qpstep=4/cplxblur=20.0/qblur=0.5/vbv_maxrate=8040/vbv_bufsize=10720/nal_hrd=vbr/ip_ratio=1.40/aq=1: 1.00
    Язык : English
    Default : Да
    Forced : Нет
    Аудио #1
    Идентификатор : 2
    Формат : AC-3
    Формат/Информация : Audio Coding 3
    Параметр Endianness формата : Big
    Идентификатор кодека : A_AC3
    Продолжительность : 54 м. 35 с.
    Вид битрейта : Постоянный
    Битрейт : 384 Кбит/сек
    Каналы : 6 каналов
    Расположение каналов : Front: L C R, Side: L R, LFE
    Частота : 48, 0 КГц
    Частота кадров : 31, 250 кадров/сек (1536 SPF)
    Битовая глубина : 16 бит
    Метод сжатия : С потерями
    Размер потока : 150 Мбайт (6%)
    Язык : Russian
    ServiceKind/String : Complete Main
    Default : Да
    Forced : Нет
    Аудио #2
    Идентификатор : 3
    Формат : AC-3
    Формат/Информация : Audio Coding 3
    Параметр Endianness формата : Big
    Идентификатор кодека : A_AC3
    Продолжительность : 54 м. 35 с.
    Вид битрейта : Постоянный
    Битрейт : 384 Кбит/сек
    Каналы : 6 каналов
    Расположение каналов : Front: L C R, Side: L R, LFE
    Частота : 48, 0 КГц
    Частота кадров : 31, 250 кадров/сек (1536 SPF)
    Битовая глубина : 16 бит
    Метод сжатия : С потерями
    Размер потока : 150 Мбайт (6%)
    Язык : English
    ServiceKind/String : Complete Main
    Default : Нет
    Forced : Нет
    Текст #1
    Идентификатор : 4
    Формат : UTF-8
    Идентификатор кодека : S_TEXT/UTF8
    Идентификатор кодека/Информация : UTF-8 Plain Text
    Язык : Russian
    Default : Да
    Forced : Да
    Текст #2
    Идентификатор : 5
    Формат : UTF-8
    Идентификатор кодека : S_TEXT/UTF8
    Идентификатор кодека/Информация : UTF-8 Plain Text
    Язык : English
    Default : Нет
    Forced : Нет


    Нарко/Нарки/Барыги/Narcos (2017) WEBRip [H.264/1080p-LQ] (сезон 3, серии 1-10 из 10) NewStudio
    загрузка...
    Рейтинг →
     (голосов: 1, оценка 4/5, голосовать можно 1 раз )

    Другие торренты по теме:

  • Нарко / Нарки / Барыги / Narcos (2016) WEBRip [H.264 / 1080p] (сезон 2, серии 1 из 10) LostFilm (обновляемая)
  • Нарко / Нарки / Барыги / Narcos (2016) WEBRip (сезон 2, серии 1 из 10) LostFilm (обновляемая)
  • Нарко / Нарки / Барыги / Narcos (2016) WEBRip [H.264 / 720p-LQ] (сезон 2, серии 1-10 из 10) Jetvis Studio
  • Нарко / Нарки / Барыги / Narcos (2016) WEBRip (сезон 2, серии 1-10 из 10) NewStudio
  • Нарко / Нарки / Барыги / Narcos (2016) WEBRip [H.264 / 720p-LQ] (сезон 2, серии 1-10 из 10) NewStudio
  • Нарко / Нарки / Барыги / Narcos (2015-2016) WEBRip [H.264] (сезон 1-2, серии 1-20 из 20) LostFilm [MP4|1280x720] [AD]
  • Нарко / Нарки / Барыги / Narcos (2017) WEBRip [H.264] (сезон 3, серии 1-4 из 10) Baibako (обновляемая)
  • Нарко / Нарки / Барыги / Narcos (2017) WEBRip [H.264 / 720p-LQ] (сезон 3, серии 1-10 из 10) NewStudio


    • Комментарии (0):

      Информация

      Информация

        Посетители, находящиеся в группе Гости, не могут оставлять комментарии в данной новости.

        ↓ Меню




        ↓ Опрос

        Вы добавили сайт в закладки?
        Да
        Нет


        Top 10 за месяц (Фильмы)