.
Авторизация | Регистрация
Хочешь лучшие торренты? Добавь свой email!
Добавить

Торрент скачать бесплатно

» » Жена полицейского (2017) HDTVRip [H.264 / 720p-LQ] (сезон 1, серии 1-2 из 16) (обновляемая) торрент скачать бесплатно




    Жена полицейского (2017) HDTVRip [H.264 / 720p-LQ] (сезон 1, серии 1-2 из 16) (обновляемая) торрент скачать бесплатно

    Опубликовал: Админ | Дата: 10-09-2017, 11:46 | Просмотров: 0

    Производство: Россия, Мастерская Павла Лунгина
    Жанр: Драма, Детектив
    Режиссер: Александр Соловьёв

    Актеры
    Виктория Толстоганова, Виталий Кищенко, Сергей Удовик, Лукерья Ильяшенко, Юрий Кузнецов, Алла Малкова, Михаил Куряев, Станислав Беляев, Юлия Соломатина, Ольга Виниченко и др.

    Описание

    Лера Валецкая - счастливая домохозяйка, полностью посвятившая себя детям и любимому супругу Виктору, майору полиции. Но размеренной, спокойной жизни приходит конец, когда Лера узнает, что ее супруг вовсе не тот, за кого себя выдает. Оказывается, Виктор давно проворачивает незаконные дела и фактически ведет двойную жизнь. Увидеть истинное лицо любимого человека Лере помогает молодой оперативник Глеб Смыслов. С этого момента многолетняя семейная идиллия начинает рушиться словно карточный домик. Валецким предстоит решить: готовы ли они, несмотря ни на что, остаться семьей и попробовать начать все сначала. Кроме того, вскоре супругов ожидает еще одна, не менее тяжелая проверка на прочность…

    Возраст: 16+ (зрителям, достигшим 16 лет)
    Дата российской премьеры: 4.09.2017
    Продолжительность: ~ 00: 45: 00 серия
    Качество видео: HDTVRip
    Видео: AVC/H.264, 1280x720, ~3500 Kbps
    Аудио: AC3, 2 ch, 192 Kbps

    Общее
    Уникальный идентификатор : 171835074993010259996747574696791960455 (0x81463B4CEC5DACB0B182F1EE044AEB87)
    Полное имя : D: СЕРИАЛЫЖЕНА ПОЛИЦЕЙСКОГОZhena.politseyskogo.2017.HDTVRip.(720p).NikolspupZhena.politseyskogo.(01.seriya.iz.16).2017.HDTVRip.(720p).Nikolspup.mkv
    Формат : Matroska
    Версия формата : Version 4/Version 2
    Размер файла : 1, 32 Гбайт
    Продолжительность : 51 м. 9 с.
    Общий поток : 3694 Кбит/сек
    Дата кодирования : UTC 2017-09-05 02: 38: 37
    Программа кодирования : mkvmerge v7.8.0 (\'River Man\') 32bit built on Apr 3 2015 12: 11: 22
    Библиотека кодирования : libebml v1.3.1 + libmatroska v1.4.2
    Видео
    Идентификатор : 1
    Формат : AVC
    Формат/Информация : Advanced Video Codec
    Профиль формата : High@L4.1
    Параметр CABAC формата : Да
    Параметр ReFrames формата : 9 кадров
    Идентификатор кодека : V_MPEG4/ISO/AVC
    Продолжительность : 51 м. 9 с.
    Битрейт : 3500 Кбит/сек
    Ширина : 1280 пикселей
    Высота : 720 пикселей
    Соотношение сторон : 16: 9
    Режим частоты кадров : Постоянный
    Частота кадров : 25, 000 кадров/сек
    Цветовое пространство : YUV
    Субдискретизация насыщенности : 4: 2: 0
    Битовая глубина : 8 бит
    Тип развёртки : Прогрессивная
    Бит/(Пиксели*Кадры) : 0.152
    Размер потока : 1, 25 Гбайт (95%)
    Библиотека кодирования : x264 core 146 r2538 121396c
    Настройки программы : cabac=1/ref=9/deblock=1: -3: -3/analyse=0x3: 0x113/me=umh/subme=11/psy=1/psy_rd=1.00: 0.20/mixed_ref=1/me_range=32/chroma_me=1/trellis=2/8x8dct=1/cqm=0/deadzone=21, 11/fast_pskip=1/chroma_qp_offset=-3/threads=6/lookahead_threads=1/sliced_threads=0/nr=0/decimate=0/interlaced=0/bluray_compat=0/constrained_intra=0/bframes=11/b_pyramid=2/b_adapt=2/b_bias=0/direct=3/weightb=1/open_gop=0/weightp=2/keyint=250/keyint_min=25/scenecut=40/intra_refresh=0/rc_lookahead=60/rc=2pass/mbtree=1/bitrate=3500/ratetol=1.0/qcomp=0.60/qpmin=0/qpmax=69/qpstep=4/cplxblur=20.0/qblur=0.5/vbv_maxrate=14000/vbv_bufsize=14000/nal_hrd=none/filler=0/ip_ratio=1.40/aq=3: 1.00
    Default : Нет
    Forced : Нет
    Цветовой диапазон : Limited
    Основные цвета : BT.709
    Характеристики трансфера : BT.709
    Коэффициенты матрицы : BT.709
    Аудио
    Идентификатор : 2
    Формат : AC-3
    Формат/Информация : Audio Coding 3
    Параметр Endianness формата : Big
    Идентификатор кодека : A_AC3
    Продолжительность : 51 м. Самое интересное в это истории, что об этом Халк ничего не знал. 9 с.
    Вид битрейта : Постоянный
    Битрейт : 192 Кбит/сек
    Каналы : 2 канала
    Расположение каналов : Front: L R
    Частота : 48, 0 КГц
    Частота кадров : 31, 250 кадров/сек (1536 spf)
    Битовая глубина : 16 бит
    Метод сжатия : С потерями
    Размер потока : 70, 3 Мбайт (5%)
    Язык : Russian
    ServiceKind/String : Complete Main
    Default : Да
    Forced : Да


    Жена полицейского (2017) HDTVRip [H.264/720p-LQ] (сезон 1, серии 1-2 из 16) (обновляемая)
    загрузка...
    Рейтинг →
     (голосов: 1, оценка 4/5, голосовать можно 1 раз )

    Другие торренты по теме:

  • Жена полицейского (2017) WEBRip (сезон 1, серии 1-6 из 16) (обновляемая)
  • Жена полицейского (2017) WEB-DL [H.264 / 1080p-LQ] (сезон 1, серии 1-2 из 16) (обновляемая)
  • Жена полицейского (2017) WEB-DLRip (сезон 1, серии 1-8 из 16) (обновляемая)
  • Жена полицейского (2017) HDTVRip (сезон 1, серии 1-4 из 16) (обновляемая)
  • Жена полицейского (2017) HDTVRip [H.264] (сезон 1, серии 1-4 из 16) (обновляемая)
  • Жена полицейского (2017) HDTV [H.264 / 1080i-LQ] (сезон 1, серии 1-2 из 16) (обновляемая)


    • Комментарии (0):

      Информация

      Информация

        Посетители, находящиеся в группе Гости, не могут оставлять комментарии в данной новости.

        ↓ Меню




        ↓ Опрос

        Вы добавили сайт в закладки?
        Да
        Нет


        Top 10 за месяц (Фильмы)