.
Авторизация | Регистрация
Хочешь лучшие торренты? Добавь свой email!
Добавить

Торрент скачать бесплатно

» » Жена полицейского (2017) HDTV [H.264 / 1080i-LQ] (сезон 1, серии 1-2 из 16) (обновляемая) торрент скачать бесплатно




    Жена полицейского (2017) HDTV [H.264 / 1080i-LQ] (сезон 1, серии 1-2 из 16) (обновляемая) торрент скачать бесплатно

    Опубликовал: Админ | Дата: 10-09-2017, 11:46 | Просмотров: 0

    Производство: Россия, Мастерская Павла Лунгина
    Жанр: Драма, Детектив
    Режиссер: Александр Соловьёв

    Актеры
    Виктория Толстоганова, Виталий Кищенко, Сергей Удовик, Лукерья Ильяшенко, Юрий Кузнецов, Алла Малкова, Михаил Куряев, Станислав Беляев, Юлия Соломатина, Ольга Виниченко и др.

    Описание

    Лера Валецкая - счастливая домохозяйка, полностью посвятившая себя детям и любимому супругу Виктору, майору полиции. Но размеренной, спокойной жизни приходит конец, когда Лера узнает, что ее супруг вовсе не тот, за кого себя выдает. Оказывается, Виктор давно проворачивает незаконные дела и фактически ведет двойную жизнь. Увидеть истинное лицо любимого человека Лере помогает молодой оперативник Глеб Смыслов. С этого момента многолетняя семейная идиллия начинает рушиться словно карточный домик. Валецким предстоит решить: готовы ли они, несмотря ни на что, остаться семьей и попробовать начать все сначала. Кроме того, вскоре супругов ожидает еще одна, не менее тяжелая проверка на прочность…

    Возраст: 16+ (зрителям, достигшим 16 лет)
    Дата российской премьеры: 4.09.2017
    Продолжительность: ~ 00: 45: 00 серия
    Качество видео: HDTV
    Видео: AVC/H.264, 1920x1080, ~7900 Kbps
    Аудио: MP2, 2 ch, 192 Kbps

    Общее
    Идентификатор : 1 (0x1)
    Полное имя : D: СЕРИАЛЫЖЕНА ПОЛИЦЕЙСКОГОZhena.politseyskogo.2017.HDTV.(1080i).NikolspupZhena.politseyskogo.(01.seriya.iz.16).2017.HDTV.(1080i).Nikolspup.ts
    Формат : MPEG-TS
    Размер файла : 3, 03 Гбайт
    Продолжительность : 51 м. 9 с.
    Режим общего битрейта : Переменный
    Общий поток : 8479 Кбит/сек
    Видео
    Идентификатор : 901 (0x385)
    Идентификатор меню : 1081 (0x439)
    Формат : AVC
    Формат/Информация : Advanced Video Codec
    Профиль формата : Main@L4
    Параметр CABAC формата : Да
    Параметр ReFrames формата : 2 кадра
    Параметр GOP формата : M=3, N=30
    Идентификатор кодека : 27
    Продолжительность : 51 м. 9 с.
    Битрейт : 7866 Кбит/сек
    Ширина : 1920 пикселей
    Высота : 1080 пикселей
    Соотношение сторон : 16: 9
    Частота кадров : 25, 000 кадров/сек
    Цветовое пространство : YUV
    Субдискретизация насыщенности : 4: 2: 0
    Битовая глубина : 8 бит
    Тип развёртки : MBAFF
    Метод сохранения типа развёртки : Чередующиеся поля
    Порядок развёртки : Верхнее поле первое
    Бит/(Пиксели*Кадры) : 0.152
    Размер потока : 2, 81 Гбайт (93%)
    Цветовой диапазон : Limited
    Основные цвета : BT.709
    Характеристики трансфера : BT.709
    Коэффициенты матрицы : BT.709
    Аудио
    Идентификатор : 902 (0x386)
    Идентификатор меню : 1081 (0x439)
    Формат : MPEG Audio
    Версия формата : Version 1
    Профиль формата : Layer 2
    Идентификатор кодека : 3
    Продолжительность : 51 м. 9 с.
    Вид битрейта : Постоянный
    Битрейт : 192 Кбит/сек
    Каналы : 2 канала
    Частота : 48, 0 КГц
    Метод сжатия : С потерями
    Задержка видео : -80 мс.
    Размер потока : 70, 3 Мбайт (2%)
    Язык : Russian


    Жена полицейского (2017) HDTV [H.264/1080i-LQ] (сезон 1, серии 1-2 из 16) (обновляемая)
    загрузка...
    Рейтинг →
     (голосов: 1, оценка 4/5, голосовать можно 1 раз )

    Другие торренты по теме:

  • Жена полицейского (2017) WEBRip (сезон 1, серии 1-6 из 16) (обновляемая)
  • Жена полицейского (2017) WEB-DL [H.264 / 1080p-LQ] (сезон 1, серии 1-2 из 16) (обновляемая)
  • Жена полицейского (2017) WEB-DLRip (сезон 1, серии 1-8 из 16) (обновляемая)
  • Жена полицейского (2017) HDTVRip (сезон 1, серии 1-4 из 16) (обновляемая)
  • Жена полицейского (2017) HDTVRip [H.264] (сезон 1, серии 1-4 из 16) (обновляемая)
  • Жена полицейского (2017) HDTVRip [H.264 / 720p-LQ] (сезон 1, серии 1-2 из 16) (обновляемая)


    • Комментарии (0):

      Информация

      Информация

        Посетители, находящиеся в группе Гости, не могут оставлять комментарии в данной новости.

        ↓ Меню




        ↓ Опрос

        Вы добавили сайт в закладки?
        Да
        Нет


        Top 10 за месяц (Фильмы)