.
Авторизация | Регистрация
Хочешь лучшие торренты? Добавь свой email!
Добавить

Торрент скачать бесплатно

» » Морские дьяволы. Северные рубежи (2017) HDTV [H.264 / 1080i-LQ] (сезон 1, серии 1-2 из 20) (обновляемая) торрент скачать бесплатно




    Морские дьяволы. Северные рубежи (2017) HDTV [H.264 / 1080i-LQ] (сезон 1, серии 1-2 из 20) (обновляемая) торрент скачать бесплатно

    Опубликовал: Админ | Дата: 10-09-2017, 11:46 | Просмотров: 0

    Производство: Россия, Компания Гамма продакшн
    Жанр: Боевик, Военный, Приключения
    Режиссер: Александр Картохин, Максим Бриус

    Актеры
    Олег Чернов, Дарья Юргенс, Иван Паршин, Антон Гуляев, Александра Большакова, Антон Падерин, Антон Багров, Виталий Бисеров, Евгения Любимова, Марина Доможирова и др.

    Описание

    Продолжение популярной многосерийной франшизы Морские дьяволы в актуализированном виде – спецподразделение выполняет непростые задачи в суровых условиях на северной границе России. Официально, спецподразделение теперь называется – Нерпы. Сама группа набирается из профессионалов возрастом около 35 лет. Батя, Багира и Бизон выполняют в сериале командно-тактические функции, хотя иногда и оказываются на острие действия. Офицеры группы спецназа Нерпы стоят на страже спокойствия и порядка северных рубежей страны в приграничном портовом городе, на берегу одного их северных морей. Они борются со злом во всех его проявлениях. Нерпы не только охраняют Северный рубеж государства, но и охотятся за диверсантами, предателями родины, обезвреживают иностранные специальные подразделения.

    Возраст: 16+ (зрителям, достигшим 16 лет)
    Дата российской премьеры: 4.09.2017
    Продолжительность: ~ 00: 48: 00 серия
    Качество видео: HDTV
    Видео: AVC/H.264, 1920x1080, ~7800 Kbps
    Аудио: MP2, 2 ch, 192 Kbps

    Общее
    Идентификатор : 1 (0x1)
    Полное имя : D: СЕРИАЛЫМОРСКИЕ ДЬЯВОЛЫMorskie.djavoly.Severnye.rubezhi.2017.HDTV.(1080i).NikolspupMorskie.djavoly.Severnye.rubezhi.(01.seriya).2017.HDTV.(1080i).Nikolspup.ts
    Формат : MPEG-TS
    Размер файла : 2, 85 Гбайт
    Продолжительность : 48 м. 10 с.
    Режим общего битрейта : Переменный
    Общий поток : 8478 Кбит/сек
    Видео
    Идентификатор : 901 (0x385)
    Идентификатор меню : 1081 (0x439)
    Формат : AVC
    Формат/Информация : Advanced Video Codec
    Профиль формата : Main@L4
    Параметр CABAC формата : Да
    Параметр ReFrames формата : 2 кадра
    Идентификатор кодека : 27
    Продолжительность : 48 м. 10 с.
    Битрейт : 7865 Кбит/сек
    Ширина : 1920 пикселей
    Высота : 1080 пикселей
    Соотношение сторон : 16: 9
    Частота кадров : 25, 000 кадров/сек
    Цветовое пространство : YUV
    Субдискретизация насыщенности : 4: 2: 0
    Битовая глубина : 8 бит
    Тип развёртки : MBAFF
    Метод сохранения типа развёртки : Чередующиеся поля
    Порядок развёртки : Верхнее поле первое
    Бит/(Пиксели*Кадры) : 0.152
    Размер потока : 2, 65 Гбайт (93%)
    Цветовой диапазон : Limited
    Основные цвета : BT.709
    Характеристики трансфера : BT.709
    Коэффициенты матрицы : BT.709
    Аудио
    Идентификатор : 902 (0x386)
    Идентификатор меню : 1081 (0x439)
    Формат : MPEG Audio
    Версия формата : Version 1
    Профиль формата : Layer 2
    Идентификатор кодека : 3
    Продолжительность : 48 м. 10 с.
    Вид битрейта : Постоянный
    Битрейт : 192 Кбит/сек
    Каналы : 2 канала
    Частота : 48, 0 КГц
    Метод сжатия : С потерями
    Задержка видео : -40 мс.
    Размер потока : 66, 1 Мбайт (2%)
    Язык : Russian


    Морские дьяволы. Северные рубежи (2017) HDTV [H.264/1080i-LQ] (сезон 1, серии 1-2 из 20) (обновляемая)
    загрузка...
    Рейтинг →
     (голосов: 1, оценка 3/5, голосовать можно 1 раз )

    Другие торренты по теме:

  • Морские дьяволы. Северные рубежи (2017) WEBRip (1 сезон, серии 1-20 из 20)
  • Морские дьяволы. Северные рубежи (2017) HDTVRip [H.264] (сезон 1, серии 1-20 из 20)
  • Морские дьяволы. Северные рубежи (2017) HDTVRip [H.264 / 720p-LQ] (сезон 1, серии 1-20 из 20)
  • Морские дьяволы. Смерч 2 (2014) SATRip (серии 1-35 из 64) [обновляемая] скачать через торрент бесплатно
  • Морские дьяволы. Смерч-3 (2016) SATRip (сезон 3, серии 1-2 из 16) (обновляемая)
  • Морские дьяволы. Смерч. Судьбы (2016) SATRip [H.264] (сезон 2, серия 1-2 из 16) (Обновляемая)
  • Морские дьяволы. Смерч-3 (2015) HDTVRip [H.264 / 720p] [сезон 3, серии 1-12 из 32] [обновляемая]
  • Морские дьяволы. Смерч. Судьбы (2013) WEBRip (сезон 1, серий 1-14 из 14)


    • Комментарии (0):

      Информация

      Информация

        Посетители, находящиеся в группе Гости, не могут оставлять комментарии в данной новости.

        ↓ Меню




        ↓ Опрос

        Вы добавили сайт в закладки?
        Да
        Нет


        Top 10 за месяц (Фильмы)