.
Авторизация | Регистрация
Хочешь лучшие торренты? Добавь свой email!
Добавить

Торрент скачать бесплатно

» » Война на западном направлении (1990) DVBRip (серии 1-6 из 6) торрент скачать бесплатно




    Война на западном направлении (1990) DVBRip (серии 1-6 из 6) торрент скачать бесплатно

    Опубликовал: Админ | Дата: 10-09-2017, 11:46 | Просмотров: 0

    Производство: СССР
    Жанр: драма, военный, история
    Режиссер: Григорий Кохан, Тимофей Левчук

    Актеры
    Виктор Степанов, Арчил Гомиашвили, Михаил Ульянов, Олег Савкин, Игорь Тарадайкин, Николай Олейник, Владимир Седов, Степан Олексенко, Павел Морозенко, Николай Засухин и др.

    Описание

    Военная киноэпопея, в которой излагается одна из версий начала Великой Отечественной войны, а также роли советского руководства и лично И. В. Сталина в тяжелых поражениях лета 1941 года, когда вооруженные силы СССР на западной границе оказались в критическом положении, после внезапного нападения Германии 22 июня...

    Возраст: 16+ (зрителям, достигшим 16 лет)
    Продолжительность: 01: 13: 32+01: 06: 18+01: 13: 50+01: 12: 55+01: 12: 28+01: 07: 06
    Качество видео: DVBRip
    Видео: MPEG-2, 704x576@768x576 (4: 3), ~4840 Kbps
    Аудио: MP2, 2 ch, 192 Kbps

    Общее
    Полное имя : D: Война на западном направлении (1990)Серия 1.mpg
    Формат : MPEG-PS
    Размер файла : 2, 62 Гбайт
    Продолжительность : 1 ч. 13 м.
    Режим общего битрейта : Переменный
    Общий поток : 5095 Кбит/сек
    Видео
    Идентификатор : 224 (0xE0)
    Формат : MPEG Video
    Версия формата : Version 2
    Профиль формата : Main@Main
    Параметр BVOP формата : Да
    Параметр матрицы формата : Выборочная
    Параметр GOP формата : Variable
    Структура изображения : Frame
    Продолжительность : 1 ч. 13 м.
    Вид битрейта : Переменный
    Битрейт : 4840 Кбит/сек
    Ширина : 704 пикселя
    Высота : 576 пикселей
    Соотношение сторон : 4: 3
    Частота кадров : 25, 000 кадров/сек
    Стандарт вещания : PAL
    Цветовое пространство : YUV
    Субдискретизация насыщенности : 4: 2: 0
    Битовая глубина : 8 бит
    Тип развёртки : Чересстрочная
    Порядок развёртки : Верхнее поле первое
    Метод сжатия : С потерями
    Бит/(Пиксели*Кадры) : 0.477
    Временной код первого кадра : 00: 00: 00: 00
    Оригинал временного кода : Group of pictures t_head
    GOP, открыто/закрыто : Открыто
    Размер потока : 2, 47 Гбайт (94%)
    Аудио
    Идентификатор : 192 (0xC0)
    Формат : MPEG Audio
    Версия формата : Version 1
    Профиль формата : Layer 2
    Продолжительность : 1 ч. 13 м.
    Вид битрейта : Постоянный
    Битрейт : 192 Кбит/сек
    Каналы : 2 канала
    Частота : 48, 0 КГц
    Метод сжатия : С потерями
    Задержка видео : 2 мс.
    Размер потока : 101 Мбайт (4%)


    Война на западном направлении (1990) DVBRip (серии 1-6 из 6)
    загрузка...
    Рейтинг →
     (голосов: 1, оценка 4/5, голосовать можно 1 раз )

    Другие торренты по теме:

  • Владислав Морозов | Война 2020. На западном направлении (2017) [FB2]


    • Комментарии (0):

      Информация

      Информация

        Посетители, находящиеся в группе Гости, не могут оставлять комментарии в данной новости.

        ↓ Меню




        ↓ Опрос

        Вы добавили сайт в закладки?
        Да
        Нет


        Top 10 за месяц (Фильмы)