.
Авторизация | Регистрация
Хочешь лучшие торренты? Добавь свой email!
Добавить

Торрент скачать бесплатно

» » Берега (2013) WEB-DL [H.264 / 1080p-LQ] (серии 1-8 из 8) торрент скачать бесплатно




    Берега (2013) WEB-DL [H.264 / 1080p-LQ] (серии 1-8 из 8) торрент скачать бесплатно

    Опубликовал: Админ | Дата: 10-09-2017, 11:46 | Просмотров: 0

    Производство: Россия
    Жанр: комедия
    Режиссер: Богдан Дробязко

    Актеры
    Александр Носик, Екатерина Вуличенко, Елена Захарова, Ян Цапник, Сергей Баталов, Олег Комаров, Ксения Буравская, Сергей Дорогов, Владимир Носик, Леонид Громов и др.

    Описание

    Майор-штабист Ковальский, зять столичного генерала, волею случая и своего лучшего друга и сослуживца Остроумова попадает из столицы в глухомань: пограничную заставу на российско-финской границе. Там чистенькому столичному штабисту приходится нелегко. Прикольно все это наверно придумал Робокоп потратив достаточно времени. Но он сумеет доказать всем, что он достоин звания российского солдата.

    Возраст: 12+ (зрителям, достигшим 12 лет)
    Релиз от: Алехаndr
    Продолжительность: ~00: 43: 00 серия
    Качество видео: WEB-DL
    Видео: AVC/H.264, 1920x1080 (16: 9), ~3370 Kbps
    Аудио: AC3, 2 ch, 192 Kbps

    Общее
    Уникальный идентификатор : 296518983201456348076713269267524649116 (0xDF137A980E6595CAFB81E73FAB32809C)
    Полное имя : F: Берега (2013).by.АлехаndrБерега. 1 серия.by.Алехаndr.mkv
    Формат : Matroska
    Версия формата : Version 4/Version 2
    Размер файла : 1, 11 Гбайт
    Продолжительность : 43 м. 57 с.
    Общий поток : 3632 Кбит/сек
    Программа кодирования : Lavf57.71.100
    Библиотека кодирования : Lavf57.71.100
    ErrorDetectionType : Per level 1
    Видео
    Идентификатор : 1
    Формат : AVC
    Формат/Информация : Advanced Video Codec
    Профиль формата : High@L4
    Параметр CABAC формата : Да
    Параметр RefFrames формата : 2 кадра
    Идентификатор кодека : V_MPEG4/ISO/AVC
    Продолжительность : 43 м. 57 с.
    Битрейт : 3368 Кбит/сек
    Ширина : 1920 пикселей
    Высота : 1080 пикселей
    Соотношение сторон : 16: 9
    Режим частоты кадров : Постоянный
    Частота кадров : 25, 000 кадров/сек
    Цветовое пространство : YUV
    Субдискретизация насыщенности : 4: 2: 0
    Битовая глубина : 8 бит
    Тип развёртки : Прогрессивная
    Бит/(Пиксели*Кадры) : 0.065
    Размер потока : 1, 03 Гбайт (93%)
    Default : Да
    Forced : Нет
    Цветовой диапазон : Limited
    Основные цвета : BT.709
    Характеристики трансфера : BT.709
    Коэффициенты матрицы : BT.709
    Аудио
    Идентификатор : 2
    Формат : AC-3
    Формат/Информация : Audio Coding 3
    Параметр Endianness формата : Big
    Идентификатор кодека : A_AC3
    Продолжительность : 43 м. 57 с.
    Вид битрейта : Постоянный
    Битрейт : 192 Кбит/сек
    Каналы : 2 канала
    Расположение каналов : Front: L R
    Частота : 44, 1 КГц
    Частота кадров : 28, 711 кадров/сек (1536 SPF)
    Битовая глубина : 16 бит
    Метод сжатия : С потерями
    Задержка видео : -40 мс.
    Размер потока : 60, 4 Мбайт (5%)
    Язык : unknown
    ServiceKind/String : Complete Main
    Default : Да
    Forced : Нет

    Скриншоты для ознакомления



    Все одноименные релизы в Клубе
    Время раздачи: 24/7 (круглосуточно) (до появления первых 3-5 скачавших)

    Берега (2013) WEB-DL [H.264/1080p-LQ] (серии 1-8 из 8)
    загрузка...
    Рейтинг →
     (голосов: 1, оценка 3/5, голосовать можно 1 раз )

    Другие торренты по теме:

  • Семён Слепынин | Звёздные берега [Главы 02 из 14] (2015) [MP3] [Обновляемая] скачать через торрент бесплатно
  • Багряные берега (1979) SATRip скачать через торрент бесплатно
  • Кер Рей | Берега ярости (2015) [FB2]
  • Енэ Рейтэ | Тайна алмазного берега (2011) [MP3]
  • Берега (1977) SATRip [H.264] (серии 1-7 из 7)
  • Владимир Шандриков - Где мои берега (2003) [FLAC|Lossless|image + .cue] <Chanson>
  • Дафна Дюморье | Берега. Роман о семействе Дюморье (2016) [FB2]
  • Леонид Яхнин | Студёная река - красные берега (1989) [PDF]


    • Комментарии (0):

      Информация

      Информация

        Посетители, находящиеся в группе Гости, не могут оставлять комментарии в данной новости.

        ↓ Меню




        ↓ Опрос

        Вы добавили сайт в закладки?
        Да
        Нет


        Top 10 за месяц (Фильмы)