.
Авторизация | Регистрация
Хочешь лучшие торренты? Добавь свой email!
Добавить

Торрент скачать бесплатно

» » Комиссарша (2017) HDTVRip [H.264 / 720p-LQ] (серии 1-8 из 8) торрент скачать бесплатно




    Комиссарша (2017) HDTVRip [H.264 / 720p-LQ] (серии 1-8 из 8) торрент скачать бесплатно

    Опубликовал: Админ | Дата: 10-09-2017, 11:46 | Просмотров: 0

    Производство: Россия/Марс Медиа, Амедиа продакшн
    Жанр: военный, драма
    Режиссер: Елена Николаева

    Актеры
    Ирина Пегова, Максим Емельянов, Олег Фомин, Алексей Шевченков, Александр Булатов, Иван Шибанов, Татьяна Колганова, Игорь Лепихин, Наталия Варфоломеева, Иван Рудаков и др.

    Описание

    Галина Семенова уехала из родного городка в Москву много лет назад, оставив маленького сына Илью на воспитание матери. Прикольно все это наверно придумал Китай потратив достаточно времени. В столице после окончания института попала на работу в отделение милиции, откуда в 41-ом ушла на войну.

    Продолжительность: ~00: 50: 00 серия
    Качество видео: HDTVRip
    Видео: AVC/H.264, 1280x720 (16: 9), ~3500 Kbps
    Аудио: AC3, 2 ch, 192 Kbps, CBR

    General
    Unique ID : 210203830634891391155924165583644960007 (0x9E23C901D95A585EB282332079B8A507)
    Complete name : D: DowloandsВидеоKomissarsha.HDTVRip.(720p).GeneralFilmKomissarsha.01.HDTVRip.(720p).GeneralFilm.mkv
    Format : Matroska
    Format version : Version 2
    File size : 1.30 GiB
    Duration : 50 min 15 s
    Overall bit rate : 3 694 kb/s
    Encoded date : UTC 2017-09-04 16: 44: 08
    Writing application : mkvmerge v6.1.0 (\'Old Devil\') built on Mar 4 2013 09: 10: 42
    Writing library : libebml v1.3.0 + libmatroska v1.4.0
    Video
    ID : 1
    Format : AVC
    Format/Info : Advanced Video Codec
    Format profile : High@L4.1
    Format settings, CABAC : Yes
    Format settings, ReFrames : 9 frames
    Codec ID : V_MPEG4/ISO/AVC
    Duration : 50 min 15 s
    Bit rate : 3 500 kb/s
    Width : 1 280 pixels
    Height : 720 pixels
    Display aspect ratio : 16: 9
    Frame rate mode : Constant
    Frame rate : 25.000 FPS
    Color space : YUV
    Chroma subsampling : 4: 2: 0
    Bit depth : 8 bits
    Scan type : Progressive
    Bits/(Pixel*Frame) : 0.152
    Stream size : 1.20 GiB (93%)
    Writing library : x264 core 130 r2273 b3065e6
    Encoding settings : cabac=1/ref=9/deblock=1: -2: -1/analyse=0x3: 0x133/me=umh/subme=9/psy=1/psy_rd=1.00: 0.15/mixed_ref=1/me_range=32/chroma_me=1/trellis=2/8x8dct=1/cqm=0/deadzone=21, 11/fast_pskip=0/chroma_qp_offset=-3/threads=18/lookahead_threads=3/sliced_threads=0/nr=0/decimate=0/interlaced=0/bluray_compat=0/constrained_intra=0/bframes=9/b_pyramid=2/b_adapt=2/b_bias=0/direct=1/weightb=1/open_gop=0/weightp=2/keyint=250/keyint_min=25/scenecut=40/intra_refresh=0/rc=2pass/mbtree=0/bitrate=3500/ratetol=1.0/qcomp=0.60/qpmin=0/qpmax=69/qpstep=4/cplxblur=20.0/qblur=0.5/ip_ratio=1.40/pb_ratio=1.30/aq=2: 1.00
    Default : Yes
    Forced : No
    Color range : Limited
    Color primaries : BT.709
    Transfer characteristics : BT.709
    Matrix coefficients : BT.709
    Audio
    ID : 2
    Format : AC-3
    Format/Info : Audio Coding 3
    Mode extension : CM (complete main)
    Format settings, Endianness : Big
    Codec ID : A_AC3
    Duration : 50 min 15 s
    Bit rate mode : Constant
    Bit rate : 192 kb/s
    Channel(s) : 2 channels
    Channel positions : Front: L R
    Sampling rate : 48.0 kHz
    Frame rate : 31.250 FPS (1536 spf)
    Bit depth : 16 bits
    Compression mode : Lossy
    Stream size : 69.0 MiB (5%)
    Default : Yes
    Forced : No

    Скриншоты для ознакомления



    Все одноименные релизы в Клубе
    Время раздачи: С 18: 00-00: 00 (до появления первых 3-5 скачавших)

    Комиссарша (2017) HDTVRip [H.264/720p-LQ] (серии 1-8 из 8)
    загрузка...
    Рейтинг →
     (голосов: 1, оценка 4/5, голосовать можно 1 раз )

    Другие торренты по теме:

  • Комиссарша (2016) SATRip (серии 1-2 из 8) (обновляемая)
  • Комиссарша (2017) SATRip [H.264] ( серии 1-8 из 8)
  • Комиссарша (2017) WEB-DL [H.264 / 1080p-LQ] (серии 1-8 из 8)
  • Комиссарша (2017) WEBRip (серии 1-8 из 8)


    • Комментарии (0):

      Информация

      Информация

        Посетители, находящиеся в группе Гости, не могут оставлять комментарии в данной новости.

        ↓ Меню




        ↓ Опрос

        Вы добавили сайт в закладки?
        Да
        Нет


        Top 10 за месяц (Фильмы)