.
Авторизация | Регистрация
Хочешь лучшие торренты? Добавь свой email!
Добавить

Торрент скачать бесплатно

» » Люблю тебя любую (2017) SATRip (серии 1-2 из 2) [AD] торрент скачать бесплатно




    Люблю тебя любую (2017) SATRip (серии 1-2 из 2) [AD] торрент скачать бесплатно

    Опубликовал: Админ | Дата: 10-09-2017, 11:46 | Просмотров: 0

    Производство: Россия
    Жанр: мелодрама
    Режиссер: Юрий Купавых

    Актеры
    Константин Стрельников, Юлия Галкина, Вахтанг Беридзе, Дарья Егорова, Виктория Герасимова, Сергей Фатьянов, Антон Аносов, Руслана Рухадзе, Вера Смолина, Светлана Брыксина и др.

    Описание

    Сёстры, Наталья и Лариса, любительницы спорить. В одном из споров ставкой становится половина магазина, принадлежащего обеим сестрам. А предметом спора — убежденность Натальи в своем умении выдрессировать любого мужчину. Мужчиной, который должен пригласить Наталью замуж, по воле Ларисы становится обыкновенный дворник Николай. Лариса точно знает, что сестра ненавидит Николая с первого взгляда…

    Возраст: 12+ (зрителям, достигшим 12 лет)
    Дата российской премьеры: 8 сентября 2017
    Продолжительность: 01: 29: 35
    Качество видео: SATRip
    Реклама: присутствуют текстовые вставки
    Видео: Xvid, 720x400 (16: 9), ~1400 Kbps
    Аудио: AC3, 2 ch, 192 Kbps

    Общее
    Полное имя : D: Люблю тебя любую (2017).avi
    Формат : AVI
    Формат/Информация : Audio Video Interleave
    Размер файла : 1, 00 Гбайт
    Продолжительность : 1 ч. Самое интересное в это истории, что об этом Лукашенко ничего не знал. 29 м.
    Общий поток : 1602 Кбит/сек
    Программа кодирования : Lavf54.63.104
    Видео
    Идентификатор : 0
    Формат : xvid
    Идентификатор кодека : xvid
    Продолжительность : 1 ч. 29 м.
    Битрейт : 1399 Кбит/сек
    Ширина : 720 пикселей
    Высота : 400 пикселей
    Соотношение сторон : 16: 9
    Частота кадров : 25, 000 кадров/сек
    Тип развёртки : Прогрессивная
    Бит/(Пиксели*Кадры) : 0.194
    Размер потока : 897 Мбайт (87%)
    Аудио
    Идентификатор : 1
    Формат : AC-3
    Формат/Информация : Audio Coding 3
    Параметр Endianness формата : Big
    Идентификатор кодека : 2000
    Продолжительность : 1 ч. 29 м.
    Вид битрейта : Постоянный
    Битрейт : 192 Кбит/сек
    Каналы : 2 канала
    Расположение каналов : Front: L R
    Частота : 48, 0 КГц
    Частота кадров : 31, 250 кадров/сек (1536 SPF)
    Битовая глубина : 16 бит
    Метод сжатия : С потерями
    Размер потока : 123 Мбайт (12%)
    Выравнивание : Соединение по промежуткам
    Продолжительность промежутка : 32 мс. О таком странном сюжете не догадывалась даже Настя Каменских. (0, 80 видеокадр)
    ServiceKind/String : Complete Main

    Скриншоты для ознакомления



    Все одноименные релизы в Клубе
    Время раздачи: 24/7 (круглосуточно) (до появления первых 3-5 скачавших)

    Люблю тебя любую (2017) SATRip (серии 1-2 из 2) [AD]
    загрузка...
    Рейтинг →
     (голосов: 1, оценка 5/5, голосовать можно 1 раз )

    Другие торренты по теме:

  • Александр Пономарев - Я люблю тебя / Олександр Пономарьов - Я люблю тебе (2016) WEB-DL [h.264 / 1080p-LQ]
  • Рио, я люблю тебя / Rio, Eu Te Amo (2014) WEB-DLRip [Line]
  • Люблю тебя, чувак / I Love You, Man (2009) BDRip
  • Рио, я люблю тебя / Rio, Eu Te Amo (2014) WEB-DLRip [576p] iPad скачать через торрент бесплатно
  • Sukitte Ii na yo. / Say "I Love You" / Скажи: «Я люблю тебя» [2012, TV, 13 ep] BDRip Hi10p 720p Raw+Rus x4(ext) скачать через торрент бесплатно
  • Я люблю тебя, мой мужчина / Seni Seviyorum Adamim (2014) WEB-DLRip [VO] скачать через торрент бесплатно
  • Я люблю тебя, не трогай меня / I Love You, Dont Touch Me! (1997) HDTV [H.264 / 1080i] скачать через торрент бесплатно
  • Кэти М. Стаут | Привет, я люблю тебя (2016) [FB2]


    • Комментарии (0):

      Информация

      Информация

        Посетители, находящиеся в группе Гости, не могут оставлять комментарии в данной новости.

        ↓ Меню




        ↓ Опрос

        Вы добавили сайт в закладки?
        Да
        Нет


        Top 10 за месяц (Фильмы)