.
Авторизация | Регистрация
Хочешь лучшие торренты? Добавь свой email!
Добавить

Торрент скачать бесплатно

» » Ольга (2017) WEB-DLRip [H.264] (сезон 2, серии 1-5 из 20) (обновляемая) торрент скачать бесплатно




    Ольга (2017) WEB-DLRip [H.264] (сезон 2, серии 1-5 из 20) (обновляемая) торрент скачать бесплатно

    Опубликовал: Админ | Дата: 10-09-2017, 11:46 | Просмотров: 0

    Производство: Россия/Good Story Media
    Жанр: комедия
    Режиссер: Алексей Нужный, Игорь Волошин

    Актеры
    Яна Троянова, Ксения Суркова, Сергей Романович, Мухаммед Абу-Ризик, Алина Алексеева, Василий Кортуков, Максим Костромыкин, Филипп Ершов, Александр Шам, Светлана Костюкова и др.

    Описание

    Главная героиня воспитывает двух детей от разных браков, заботится об отце-алкоголике и пытается наладить личную жизнь. Старшая дочь Анька учится в ПТУ, думает, что она единственный адекватный член семьи и в её жизни все будет по-другому, младший сын Тимофей, чей отец вернулся к первой семье в Азербайджан, считает, что он уже мужчина, хотя ему всего лишь 11 лет, отец Ольги, бывший футболист, крепко выпивает и постоянно врет, а сестра Ленка пытается жить за счет мужчин, в основном — женатых. Вечно спасая родственников от неприятностей, Ольга живет чужой жизнью и редко думает о себе — до тех пор, пока в нее не влюбляется молодой и положительный водитель газели Ритуал Гриша.

    Возраст: 16+ (зрителям, достигшим 16 лет)
    Продолжительность: ~ 00: 26: 00 серия
    Качество видео: WEB-DLRip
    Видео: AVC/H.264, 1024x576, ~1600 Kbps
    Аудио: AC3, 2 ch, 192 Kbps

    Общее
    Уникальный идентификатор : 179590991620229278761761220230575471548 (0x871BF7838152EA378BAB21CD3E4EBBBC)
    Полное имя : D: СЕРИАЛЫОЛЬГАOlga.s02.(2017).WEB-DLRip.(AVC).Files-x1.Olga.(2017).WEB-DLRip.(AVC).by.Серый1779.Files-x.mkv
    Формат : Matroska
    Версия формата : Version 2
    Размер файла : 299 Мбайт
    Продолжительность : 23 м. 20 с.
    Общий поток : 1792 Кбит/сек
    Дата кодирования : UTC 2017-09-05 05: 11: 26
    Программа кодирования : mkvmerge v7.8.0 (\'River Man\') 32bit built on Apr 3 2015 12: 11: 22
    Библиотека кодирования : libebml v1.3.1 + libmatroska v1.4.2
    Видео
    Идентификатор : 1
    Формат : AVC
    Формат/Информация : Advanced Video Codec
    Профиль формата : High@L4.1
    Параметр CABAC формата : Да
    Параметр ReFrames формата : 9 кадров
    Идентификатор кодека : V_MPEG4/ISO/AVC
    Продолжительность : 23 м. 20 с.
    Битрейт : 1600 Кбит/сек
    Ширина : 1024 пикселя
    Высота : 576 пикселей
    Соотношение сторон : 16: 9
    Режим частоты кадров : Постоянный
    Частота кадров : 25, 000 кадров/сек
    Цветовое пространство : YUV
    Субдискретизация насыщенности : 4: 2: 0
    Битовая глубина : 8 бит
    Тип развёртки : Прогрессивная
    Бит/(Пиксели*Кадры) : 0.109
    Размер потока : 261 Мбайт (87%)
    Библиотека кодирования : x264 core 146 r2538 121396c
    Настройки программы : cabac=1/ref=9/deblock=1: -2: -1/analyse=0x3: 0x113/me=umh/subme=9/psy=1/psy_rd=1.00: 0.15/mixed_ref=1/me_range=32/chroma_me=1/trellis=2/8x8dct=1/cqm=0/deadzone=21, 11/fast_pskip=0/chroma_qp_offset=-3/threads=6/lookahead_threads=1/sliced_threads=0/nr=0/decimate=1/interlaced=0/bluray_compat=0/constrained_intra=0/bframes=9/b_pyramid=2/b_adapt=2/b_bias=0/direct=1/weightb=1/open_gop=0/weightp=2/keyint=250/keyint_min=25/scenecut=40/intra_refresh=0/rc_lookahead=50/rc=2pass/mbtree=0/bitrate=1600/ratetol=1.0/qcomp=0.60/qpmin=0/qpmax=69/qpstep=4/cplxblur=20.0/qblur=0.5/vbv_maxrate=14000/vbv_bufsize=14000/nal_hrd=none/filler=0/ip_ratio=1.40/pb_ratio=1.30/aq=2: 1.00
    Default : Да
    Forced : Нет
    Цветовой диапазон : Limited
    Основные цвета : BT.709
    Характеристики трансфера : BT.709
    Коэффициенты матрицы : BT.709
    Аудио
    Идентификатор : 2
    Формат : AC-3
    Формат/Информация : Audio Coding 3
    Параметр Endianness формата : Big
    Идентификатор кодека : A_AC3
    Продолжительность : 23 м. 20 с.
    Вид битрейта : Постоянный
    Битрейт : 192 Кбит/сек
    Каналы : 2 канала
    Расположение каналов : Front: L R
    Частота : 44, 1 КГц
    Частота кадров : 28, 711 кадров/сек (1536 spf)
    Битовая глубина : 16 бит
    Метод сжатия : С потерями
    Размер потока : 32, 1 Мбайт (11%)
    ServiceKind/String : Complete Main
    Default : Да
    Forced : Нет


    Ольга (2017) WEB-DLRip [H.264] (сезон 2, серии 1-5 из 20) (обновляемая)
    загрузка...
    Рейтинг →
     (голосов: 1, оценка 4/5, голосовать можно 1 раз )

    Другие торренты по теме:

  • Ольга (2016) WEB-DLRip [H.264 / 720p-LQ] (сезон 1, серии 1 из 20) (обновляемая)
  • Ольга (2016) WEB-DLRip (сезон 1, серии 1-3 из 20) (обновляемая)
  • Ольга (2016) WEB-DLRip [H.264] (сезон 1, серии 1-9 из 20) (обновляемая)
  • Ольга (2017) WEB-DLRip (сезон 2, серии 1-5 из 20) (обновляемая)


    • Комментарии (0):

      Информация

      Информация

        Посетители, находящиеся в группе Гости, не могут оставлять комментарии в данной новости.

        ↓ Меню




        ↓ Опрос

        Вы добавили сайт в закладки?
        Да
        Нет


        Top 10 за месяц (Фильмы)