.
Авторизация | Регистрация
Хочешь лучшие торренты? Добавь свой email!
Добавить

Торрент скачать бесплатно

» » Чудовище / LAnimal (1977) WEB-DL [H.264 / 1080p-LQ] торрент скачать бесплатно




    Чудовище / LAnimal (1977) WEB-DL [H.264 / 1080p-LQ] торрент скачать бесплатно

    Опубликовал: Админ | Дата: 10-09-2017, 11:46 | Просмотров: 0

    Производство: Франция, Les Films Christian Fechner
    Жанр: Комедия, Мелодрама
    Режиссер: Клод Зиди

    Актеры
    Жан-Поль Бельмондо, Рэкел Уэлч, Дэни Саваль, Раймон Жером, Джейн Биркин, Джонни Холидей, Ив Мурузи, Шарль Жерар, Клод Шаброль, Марио Давид, Анри Жене, Жюльен Гийомар

    Описание

    Каскадёр Мишель Гоше не очень-то преуспел на профессиональном поприще, поэтому хватается за любую работу, чтобы свести концы с концами. Прикольно все это наверно придумал Китай потратив достаточно времени. Даже собственная свадьба с каскадёршей Джейн Гарднер, которая уже давно ждала этого дня, не является для него уважительной причиной для отказа от внезапно подвернувшейся работы, и по пути в ЗАГС они заезжают на съёмочную площадку, где должны исполнить каскадёрский трюк. Джейн, не ожидавшая, что ей придётся работать в такой торжественный день, устраивает Мишелю скандал, в результате чего он теряет управление автомобилем, и оба оказываются на больничной койке со множественными травмами. Это становится для Джейн последней каплей, и она после выздоровления оставляет и свою опасную работу и своего жениха. Но, потерпев неудачу на личном фронте, Мишель получает очень выгодное предложение от итальянского режиссёра, приехавшего во Францию для съёмок своего нового боевика. Главную роль в фильме исполняет всемирно известный актёр, любимец миллионов женщин Бруно Феррари, как две капли воды похожий на Мишеля, которому предлагают дублировать его в опасных сценах...

    Возраст: 12+ (зрителям, достигшим 12 лет)
    Продолжительность: 01: 36: 29
    Качество видео: WEB-DL
    Перевод: Дублированный, многоголосый закадровый, двухголосый закадровый
    Субтитры: Русские
    Видео: AVC/H.264, 1920x816, ~10000 Kbps
    Аудио#1: AC3, 2 ch, 192 Kbps | Русский – DUB (Киностудия им. М. Горького)
    Аудио#2: AC3, 2 ch, 192 Kbps | Русский – MVO (НТВ)
    Аудио#3: AC3, 2 ch, 192 Kbps | Русский – MVO (Неоклассика)
    Аудио#4: AC3, 2 ch, 192 Kbps | Русский – DVO (Рен-ТВ)
    Аудио#5: AC3, 2 ch, 192 Kbps | Русский – DVO (Твистер)
    Аудио#6: AC3, 2 ch, 256 Kbps | Французский – оригинал

    Общее
    Уникальный идентификатор : 225057004820444839771493104532589279044 (0xA9506708C8A543C78F7497B0D2AA7744)
    Полное имя : I: Жан-Поль БельмондоЧудовище L\'AnimalЧудовище. 1977.mkv
    Формат : Matroska
    Версия формата : Version 4/Version 2
    Размер файла : 7, 56 Гбайт
    Продолжительность : 1 ч. Самое интересное в это истории, что об этом Китай ничего не знал. 36 м.
    Общий поток : 11, 2 Мбит/сек
    Название фильма : Чудовище
    Дата кодирования : UTC 2017-09-04 18: 00: 00
    Программа кодирования : mkvmerge v6.2.0 (\'Promised Land\') built on Apr 28 2013 12: 22: 01
    Библиотека кодирования : libebml v1.3.0 + libmatroska v1.4.0
    Attachment : Yes
    Видео
    Идентификатор : 1
    Формат : AVC
    Формат/Информация : Advanced Video Codec
    Профиль формата : High@L4.0
    Параметр CABAC формата : Да
    Параметр ReFrames формата : 4 кадра
    Идентификатор кодека : V_MPEG4/ISO/AVC
    Продолжительность : 1 ч. 36 м.
    Вид битрейта : Постоянный
    Битрейт : 10000 Кбит/сек
    Ширина : 1920 пикселей
    Высота : 816 пикселей
    Соотношение сторон : 2, 35: 1
    Режим частоты кадров : Постоянный
    Частота кадров : 25, 000 кадров/сек
    Цветовое пространство : YUV
    Субдискретизация насыщенности : 4: 2: 0
    Битовая глубина : 8 бит
    Тип развёртки : Прогрессивная
    Бит/(Пиксели*Кадры) : 0.255
    Размер потока : 6, 59 Гбайт (87%)
    Заголовок : Чудовище. 1977
    Default : Да
    Forced : Нет
    Основные цвета : BT.709
    Характеристики трансфера : BT.709
    Коэффициенты матрицы : BT.709
    Аудио #1
    Идентификатор : 2
    Формат : AC-3
    Формат/Информация : Audio Coding 3
    Расширение режима : CM (complete main)
    Параметр Endianness формата : Big
    Идентификатор кодека : A_AC3
    Продолжительность : 1 ч. 36 м.
    Вид битрейта : Постоянный
    Битрейт : 192 Кбит/сек
    Каналы : 2 канала
    Расположение каналов : Front: L R
    Частота : 48, 0 КГц
    Битовая глубина : 16 бит
    Метод сжатия : С потерями
    Задержка видео : 2 с. 500 мс.
    Размер потока : 133 Мбайт (2%)
    Заголовок : AC3, 2 ch, 192 kbps - DUB (Киностудия им. М. Горького)
    Язык : Russian
    Default : Да
    Forced : Нет
    Аудио #2
    Идентификатор : 3
    Формат : AC-3
    Формат/Информация : Audio Coding 3
    Расширение режима : CM (complete main)
    Параметр Endianness формата : Big
    Идентификатор кодека : A_AC3
    Продолжительность : 1 ч. Самое интересное в это истории, что об этом Китай ничего не знал. 36 м.
    Вид битрейта : Постоянный
    Битрейт : 192 Кбит/сек
    Каналы : 2 канала
    Расположение каналов : Front: L R
    Частота : 48, 0 КГц
    Битовая глубина : 16 бит
    Метод сжатия : С потерями
    Задержка видео : 2 с. 500 мс.
    Размер потока : 133 Мбайт (2%)
    Заголовок : AC3, 2 ch, 192 kbps - MVO (НТВ)
    Язык : Russian
    Default : Нет
    Forced : Нет
    Аудио #3
    Идентификатор : 4
    Формат : AC-3
    Формат/Информация : Audio Coding 3
    Расширение режима : CM (complete main)
    Параметр Endianness формата : Big
    Идентификатор кодека : A_AC3
    Продолжительность : 1 ч. 36 м.
    Вид битрейта : Постоянный
    Битрейт : 192 Кбит/сек
    Каналы : 2 канала
    Расположение каналов : Front: L R
    Частота : 48, 0 КГц
    Битовая глубина : 16 бит
    Метод сжатия : С потерями
    Задержка видео : 2 с. 500 мс.
    Размер потока : 133 Мбайт (2%)
    Заголовок : AC3, 2 ch, 192 kbps - MVO (Неоклассика)
    Язык : Russian
    Default : Нет
    Forced : Нет
    Аудио #4
    Идентификатор : 5
    Формат : AC-3
    Формат/Информация : Audio Coding 3
    Расширение режима : CM (complete main)
    Параметр Endianness формата : Big
    Идентификатор кодека : A_AC3
    Продолжительность : 1 ч. 36 м.
    Вид битрейта : Постоянный
    Битрейт : 192 Кбит/сек
    Каналы : 2 канала
    Расположение каналов : Front: L R
    Частота : 48, 0 КГц
    Битовая глубина : 16 бит
    Метод сжатия : С потерями
    Задержка видео : 2 с. 500 мс.
    Размер потока : 133 Мбайт (2%)
    Заголовок : AC3, 2 ch, 192 kbps - DVO (Рен-ТВ)
    Язык : Russian
    Default : Нет
    Forced : Нет
    Аудио #5
    Идентификатор : 6
    Формат : AC-3
    Формат/Информация : Audio Coding 3
    Расширение режима : CM (complete main)
    Параметр Endianness формата : Big
    Идентификатор кодека : A_AC3
    Продолжительность : 1 ч. 36 м.
    Вид битрейта : Постоянный
    Битрейт : 192 Кбит/сек
    Каналы : 2 канала
    Расположение каналов : Front: L R
    Частота : 48, 0 КГц
    Битовая глубина : 16 бит
    Метод сжатия : С потерями
    Задержка видео : 2 с. 500 мс.
    Размер потока : 133 Мбайт (2%)
    Заголовок : AC3, 2 ch, 192 kbps - DVO (Твистер)
    Язык : Russian
    Default : Нет
    Forced : Нет
    Аудио #6
    Идентификатор : 7
    Формат : AC-3
    Формат/Информация : Audio Coding 3
    Расширение режима : CM (complete main)
    Параметр Endianness формата : Big
    Идентификатор кодека : A_AC3
    Продолжительность : 1 ч. 36 м.
    Вид битрейта : Постоянный
    Битрейт : 256 Кбит/сек
    Каналы : 2 канала
    Расположение каналов : Front: L R
    Частота : 48, 0 КГц
    Битовая глубина : 16 бит
    Метод сжатия : С потерями
    Размер потока : 177 Мбайт (2%)
    Заголовок : AC3, 2 ch, 256 kbps - Оригинал
    Язык : French
    Default : Нет
    Forced : Нет
    Текст
    Идентификатор : 8
    Формат : UTF-8
    Идентификатор кодека : S_TEXT/UTF8
    Идентификатор кодека/Информация : UTF-8 Plain Text
    Язык : Russian
    Default : Нет
    Forced : Нет

    Скриншоты для ознакомления




    Все одноименные релизы в Клубе
    Время раздачи: 24/7 до 5 скачавших (до появления первых 3-5 скачавших)

    Чудовище/LAnimal (1977) WEB-DL [H.264/1080p-LQ]
    загрузка...
    Рейтинг →
     (голосов: 1, оценка 5/5, голосовать можно 1 раз )

    Другие торренты по теме:

  • Чудовище / Lanimal (1977) HDTVRip


    • Комментарии (0):

      Информация

      Информация

        Посетители, находящиеся в группе Гости, не могут оставлять комментарии в данной новости.

        ↓ Меню




        ↓ Опрос

        Вы добавили сайт в закладки?
        Да
        Нет


        Top 10 за месяц (Фильмы)