.
Авторизация | Регистрация
Хочешь лучшие торренты? Добавь свой email!
Добавить

Торрент скачать бесплатно

» » Пираты Карибского моря: Мертвецы не рассказывают сказки / Pirates of the Caribbean: Dead Men Tell No Tales (2017) WEB-DL [H.264 / 1080p-LQ] [EN / EN Sub] торрент скачать бесплатно




    Пираты Карибского моря: Мертвецы не рассказывают сказки / Pirates of the Caribbean: Dead Men Tell No Tales (2017) WEB-DL [H.264 / 1080p-LQ] [EN / EN Sub] торрент скачать бесплатно

    Опубликовал: Админ | Дата: 10-09-2017, 11:46 | Просмотров: 0

    Производство: США, Walt Disney Pictures, Jerry Bruckheimer Films, Infinitum Nihil
    Жанр: Боевик, Приключения, Фэнтези, Комедия
    Режиссер: Хоаким Роннинг, Эспен Сандберг
    Продюсер: Джерри Брукхаймер, Джозеф М. Карачиоло мл., Чад Оман, ...

    Актеры
    Джонни Депп, Хавьер Бардем, Джеффри Раш, Брентон Туэйтс, Кая Скоделарио, Кевин МакНэлли, Голшифте Фарахани, Дэвид Уэнэм, Стивен Грэм, Энгус Барнетт ...

    Описание

    Исчерпавший свою удачу капитан Джек Воробей обнаруживает, что за ним охотится его старый неприятель, ужасный капитан Салазар и его призрачные пираты. Они только что сбежали из Дьявольского треугольника и намерены уничтожить всех пиратов, включая Джека. Самое интересное в это истории, что об этом Путин ничего не знал. Поможет спастись лишь могущественный артефакт — трезубец Посейдона, который дарует своему обладателю полный контроль над морями.

    Возраст: 16+ (зрителям, достигшим 16 лет)
    Рейтинг MPAA: PG-13 (детям до 13 лет просмотр нежелателен)
    Премьера (мир): 11 мая 2017, ...
    Премьера (РФ): 25 мая 2017, WDSSPR
    Дата выхода DVD/Blu-ray релиза: 19 сентября 2017, Уолт Дисней Компани СНГ

    Продолжительность: 02: 09: 06
    Качество видео: WEB-DL 1080p
    Перевод: Отсутствует
    Язык озвучки: Английский
    Субтитры: Английские (отдельным файлом)
    Видео: AVC, 1920x800 (2.40: 1), 23.976 fps, 4 439 Kbps (0.121 bit/pixel)
    Аудио: AC-3, 48.0 KHz, 6 ch, 384 Kbps, CBR (English)
    General
    Complete name : Pirates.of.the.Caribbean.Dead.Men.Tell.No.Tales.2017.1080p.WEB-DL.DD5.1.H264.mkv
    Format : Matroska
    Format version : Version 4/Version 2
    File size : 4.44 GiB
    Duration : 2 h 9 min
    Overall bit rate : 4 921 kb/s
    Encoded date : UTC 2017-09-05 15: 30: 22
    Writing application : mkvmerge v15.0.0 (\'Duel with the Devil\') 64-bit
    Writing library : libebml v1.3.5 + libmatroska v1.4.5
    Video
    ID : 1
    Format : AVC
    Format/Info : Advanced Video Codec
    Format profile : High@L4
    Format settings, CABAC : Yes
    Format settings, RefFrames : 5 frames
    Codec ID : V_MPEG4/ISO/AVC
    Duration : 2 h 9 min
    Bit rate : 4 439 kb/s
    Width : 1 920 pixels
    Height : 800 pixels
    Display aspect ratio : 2.40: 1
    Frame rate mode : Constant
    Frame rate : 23.976 (24000/1001) FPS
    Color space : YUV
    Chroma subsampling : 4: 2: 0
    Bit depth : 8 bits
    Scan type : Progressive
    Bits/(Pixel*Frame) : 0.121
    Stream size : 4.00 GiB (90%)
    Language : English
    Default : Yes
    Forced : No
    Color range : Limited
    Color primaries : BT.709
    Transfer characteristics : BT.709
    Matrix coefficients : BT.709
    Audio
    ID : 2
    Format : AC-3
    Format/Info : Audio Coding 3
    Format settings, Endianness : Big
    Codec ID : A_AC3
    Duration : 2 h 9 min
    Bit rate mode : Constant
    Bit rate : 384 kb/s
    Channel(s) : 6 channels
    Channel positions : Front: L C R, Side: L R, LFE
    Sampling rate : 48.0 kHz
    Frame rate : 31.250 FPS (1536 SPF)
    Bit depth : 16 bits
    Compression mode : Lossy
    Stream size : 355 MiB (8%)
    Language : English
    Service kind : Complete Main
    Default : Yes
    Forced : No
    Menu
    00: 00: 00.000 : en: Father\'s Curse
    00: 05: 50.000 : en: Arrest Him
    00: 08: 34.000 : en: Captain Salazar
    00: 13: 40.000 : en: Stop That Witch
    00: 16: 29.000 : en: Runaway Bank
    00: 22: 34.000 : en: Bad Luck
    00: 25: 19.000 : en: Hidden In The Stars
    00: 28: 06.000 : en: We Are Free
    00: 31: 41.000 : en: Blood Moon
    00: 33: 44.000 : en: Looking For A Pirate
    00: 37: 02.000 : en: Barbossa\'s Treasure
    00: 42: 27.000 : en: Final Words
    00: 49: 09.000 : en: Cordiality
    00: 54: 00.000 : en: Bluffing
    00: 57: 19.000 : en: Closer Than You Think
    01: 00: 38.000 : en: Salazar\'s Story
    01: 08: 30.000 : en: Mutiny
    01: 11: 57.000 : en: Ghost Sharks
    01: 16: 51.000 : en: Unscratchable Itch
    01: 19: 27.000 : en: Wedding Day
    01: 25: 04.000 : en: Just Believe Her
    01: 27: 42.000 : en: So You\'re An Orphan
    01: 31: 43.000 : en: Nowhere To Hide
    01: 38: 22.000 : en: The Island
    01: 42: 36.000 : en: Poseidon\'s Trident
    01: 47: 23.000 : en: All Must Divide
    01: 52: 58.000 : en: Let Me Tell You A Tale
    01: 59: 10.000 : en: Credits

    Скриншоты для ознакомления






    Все одноименные релизы в Клубе
    Комментирование релизов в разделе Фильмы в оригинале
    Время раздачи: 24/7 (круглосуточно) (до появления первых 3-5 скачавших)

    Пираты Карибского моря: Мертвецы не рассказывают сказки/Pirates of the Caribbean: Dead Men Tell No Tales (2017) WEB-DL [H.264/1080p-LQ] [EN/EN Sub]
    загрузка...
    Рейтинг →
     (голосов: 1, оценка 4/5, голосовать можно 1 раз )

    Другие торренты по теме:

  • Пираты Карибского моря: Мертвецы не рассказывают сказки / Pirates of the Caribbean: Dead Men Tell No Tales (2017) BDRemux [H.264 / 1080p] [3D / 2D] [ISO]
  • Пираты Карибского моря: Квадрология / Pirates of the Caribbean: Quadrilogy (2003,2006,2007,2011) BDRip [720p] скачать через торрент бесплатно
  • Пираты Карибского моря: Квадрология / Pirates of the Caribbean: Quadrilogy (2003-2011) HDRip [H.264] [MP4|960х400] скачать через торрент бесплатно
  • Пираты Карибского моря: Проклятие Черной жемчужины / Pirates of the Caribbean: The Curse of the Black Pearl (2003) BDRip [H.264 / 1080p-LQ]
  • Пираты Карибского моря: Сундук мертвеца / Pirates of the Caribbean: Dead Mans Chest (2006) BDRip [H.264 / 1080p-LQ]
  • Пираты Карибского моря: На краю Света / Pirates of the Caribbean: At Worlds End (2007) BDRip [H.264 / 1080p-LQ]
  • Пираты Карибского моря: На странных берегах / Pirates Of The Caribbean: On Stranger Tides (2011) HDRip [AVO]
  • Пираты Карибского моря: Проклятие Черной жемчужины / Pirates of the Caribbean: The Curse of the Black Pearl (2003) BDRip [H.265 / 1080p] [US Edition]


    • Комментарии (0):

      Информация

      Информация

        Посетители, находящиеся в группе Гости, не могут оставлять комментарии в данной новости.

        ↓ Меню




        ↓ Опрос

        Вы добавили сайт в закладки?
        Да
        Нет


        Top 10 за месяц (Фильмы)