.
Авторизация | Регистрация
Хочешь лучшие торренты? Добавь свой email!
Добавить

Торрент скачать бесплатно

» » Стартрек: Возмездие / Star Trek Into Darkness (2013) BDRip [H.264 / 1080p-LQ] торрент скачать бесплатно




    Стартрек: Возмездие / Star Trek Into Darkness (2013) BDRip [H.264 / 1080p-LQ] торрент скачать бесплатно

    Опубликовал: Админ | Дата: 10-09-2017, 11:46 | Просмотров: 0

    Производство: США/Paramount Pictures
    Жанр: фантастика, боевик, приключения
    Режиссер: Джей Джей Абрамс
    Продюсер: Джей Джей Абрамс, Брайан Берк, Алекс Куртцман

    Актеры
    Крис Пайн, Закари Куинто, Бенедикт Камбербатч, Саймон Пегг, Карл Урбан, Зои Салдана, Элис Ив, Джон Чо, Антон Ельчин, Питер Уэллер

    Описание

    Вернувшись на Землю, команда корабля Энтерпрайз обнаруживает, что деятельность и принципы их организации подорваны изнутри. Флот скован необъяснимым ужасом и бездействует, пока мир все глубже погружается в бездну.
    Капитан Кирк берет на себя руководство операцией по поимке злодея, ответственного за этот хаос и способного уничтожить все человечество.
    В запутанной игре не на жизнь, а на смерть, любовь и дружба будут принесены в жертву ради единственного, что осталось у Кирка — его команды.

    Возраст: 12+ (зрителям, достигшим 12 лет)
    Рейтинг MPAA: PG-13 (детям до 13 лет просмотр нежелателен)

    Релиз от: Magnetto83
    Продолжительность: 02: 12: 06
    Качество: BDRip 1080p-LQ
    Перевод: Дублированный (Лицензия BD CEE)
    Субтитры: Русские (форс.+полные), украинские (полные), Английские (full+SHD)
    Видео: H.264/AVC, 1920x800, (2.40: 1), 4 284 kbps, 23.976 fps
    Аудио: AC3, 6 ch, 448 kbps - Русский
    General
    Unique ID : 192791817056919516491774343992551478397 (0x910A5A7529E1EF4F8D904A04F049147D)
    Complete name : Стартрек. Возмездие 2013 Dub Rus BDRip 1080p.mkv
    Format : Matroska
    Format version : Version 4/Version 2
    File size : 4.36 GiB
    Duration : 2 h 12 min
    Overall bit rate : 4 721 kb/s
    Movie name : Стартрек. Возмездие 2013 Dub Rus BDRip 1080p By R.G. GoldenShara
    Encoded date : UTC 2017-08-29 06: 08: 13
    Writing application : mkvmerge v7.8.0 (\'River Man\') 32bit built on Mar 27 2015 16: 18: 02
    Writing library : libebml v1.3.1 + libmatroska v1.4.2
    Video
    ID : 1
    Format : AVC
    Format/Info : Advanced Video Codec
    Format profile : High@L4.1
    Format settings, CABAC : Yes
    Format settings, ReFrames : 5 frames
    Codec ID : V_MPEG4/ISO/AVC
    Duration : 2 h 12 min
    Bit rate : 4 284 kb/s
    Width : 1 920 pixels
    Height : 800 pixels
    Display aspect ratio : 2.40: 1
    Frame rate mode : Constant
    Frame rate : 23.976 (24000/1001) FPS
    Color space : YUV
    Chroma subsampling : 4: 2: 0
    Bit depth : 8 bits
    Scan type : Progressive
    Bits/(Pixel*Frame) : 0.116
    Stream size : 3.94 GiB (90%)
    Title : Стартрек. Возмездие 2013 BDRip 1080p By Magnetto 83
    Writing library : x264 core 146 r2538 121396c
    Encoding settings : cabac=1/ref=5/deblock=1: -1: -1/analyse=0x3: 0x113/me=umh/subme=10/psy=1/psy_rd=1.00: 0.00/mixed_ref=1/me_range=32/chroma_me=1/trellis=2/8x8dct=1/cqm=0/deadzone=21, 11/fast_pskip=0/chroma_qp_offset=-2/threads=3/lookahead_threads=1/sliced_threads=0/nr=0/decimate=1/interlaced=0/bluray_compat=0/constrained_intra=0/bframes=8/b_pyramid=2/b_adapt=2/b_bias=0/direct=3/weightb=1/open_gop=0/weightp=2/keyint=250/keyint_min=23/scenecut=40/intra_refresh=0/rc=2pass/mbtree=0/bitrate=4284/ratetol=1.0/qcomp=0.60/qpmin=0/qpmax=69/qpstep=4/cplxblur=20.0/qblur=0.5/ip_ratio=1.40/pb_ratio=1.30/aq=2: 1.00
    Language : English
    Default : Yes
    Forced : No
    Audio
    ID : 2
    Format : AC-3
    Format/Info : Audio Coding 3
    Format settings, Endianness : Big
    Codec ID : A_AC3
    Duration : 2 h 12 min
    Bit rate mode : Constant
    Bit rate : 448 kb/s
    Channel(s) : 6 channels
    Channel positions : Front: L C R, Side: L R, LFE
    Sampling rate : 48.0 kHz
    Frame rate : 31.250 FPS (1536 spf)
    Bit depth : 16 bits
    Compression mode : Lossy
    Stream size : 423 MiB (9%)
    Title : DD 5.1 @ 448 Kbps - Дубляж | Лицензия |
    Language : Russian
    Service kind : Complete Main
    Default : Yes
    Forced : No
    Text #1
    ID : 3
    Format : UTF-8
    Codec ID : S_TEXT/UTF8
    Codec ID/Info : UTF-8 Plain Text
    Duration : 1 h 5 min
    Bit rate : 1 b/s
    Count of elements : 16
    Stream size : 754 Bytes (0%)
    Title : Форс.
    Language : Russian
    Default : Yes
    Forced : No
    Text #2
    ID : 4
    Format : UTF-8
    Codec ID : S_TEXT/UTF8
    Codec ID/Info : UTF-8 Plain Text
    Duration : 2 h 2 min
    Bit rate : 100 b/s
    Count of elements : 1396
    Stream size : 90.1 KiB (0%)
    Title : Полные
    Language : Russian
    Default : No
    Forced : No
    Text #3
    ID : 5
    Format : UTF-8
    Codec ID : S_TEXT/UTF8
    Codec ID/Info : UTF-8 Plain Text
    Duration : 2 h 2 min
    Bit rate : 113 b/s
    Count of elements : 1773
    Stream size : 102 KiB (0%)
    Title : Повні
    Language : Ukrainian
    Default : No
    Forced : No
    Text #4
    ID : 6
    Format : UTF-8
    Codec ID : S_TEXT/UTF8
    Codec ID/Info : UTF-8 Plain Text
    Duration : 2 h 1 min
    Bit rate : 65 b/s
    Count of elements : 1751
    Stream size : 58.1 KiB (0%)
    Title : Full
    Language : English
    Default : No
    Forced : No
    Text #5
    ID : 7
    Format : UTF-8
    Codec ID : S_TEXT/UTF8
    Codec ID/Info : UTF-8 Plain Text
    Duration : 2 h 2 min
    Bit rate : 71 b/s
    Count of elements : 2001
    Stream size : 64.1 KiB (0%)
    Title : SDH
    Language : English
    Default : No
    Forced : No
    Text #6
    ID : 8
    Format : UTF-8
    Codec ID : S_TEXT/UTF8
    Codec ID/Info : UTF-8 Plain Text
    Duration : 2 h 2 min
    Bit rate : 86 b/s
    Count of elements : 1974
    Stream size : 77.2 KiB (0%)
    Title : SDH-COLORED
    Language : English
    Default : No
    Forced : No
    Menu
    00: 00: 00.000 : en: 00: 00: 00.000
    00: 10: 20.370 : en: 00: 10: 20.370
    00: 19: 21.494 : en: 00: 19: 21.494
    00: 30: 03.969 : en: 00: 30: 03.969
    00: 40: 09.115 : en: 00: 40: 09.115
    00: 46: 05.262 : en: 00: 46: 05.262
    00: 56: 38.228 : en: 00: 56: 38.228
    01: 06: 35.783 : en: 01: 06: 35.783
    01: 12: 55.663 : en: 01: 12: 55.663
    01: 22: 45.752 : en: 01: 22: 45.752
    01: 30: 54.741 : en: 01: 30: 54.741
    01: 38: 36.369 : en: 01: 38: 36.369
    01: 47: 09.548 : en: 01: 47: 09.548
    01: 54: 17.142 : en: 01: 54: 17.142
    01: 59: 20.653 : en: 01: 59: 20.653
    02: 03: 18.308 : en: 02: 03: 18.308
    YouTube

    Скриншоты для ознакомления


    Релизы фильма Стартрек: Возмездие/Star Trek Into Darkness на NNM Club
    Время раздачи: с 9: 00 до 23: 00

    Стартрек: Возмездие/Star Trek Into Darkness (2013) BDRip [H.264/1080p-LQ]
    загрузка...
    Рейтинг →
     (голосов: 1, оценка 4/5, голосовать можно 1 раз )

    Другие торренты по теме:

  • Стартрек: Возмездие / Star Trek Into Darkness (2013) BDRip [1080p] [IMAX] [hand made 60fps]
  • Стартрек: Возмездие / Star Trek Into Darkness (2013) BDRemux [1080p] [IMAX]
  • Стартрек: Возмездие / Star Trek Into Darkness (2013) BDRip [1080p] ATV
  • Стартрек: Возмездие / Star Trek Into Darkness (2013) BDRip [576p] iPad
  • Стартрек: Возмездие / Star Trek Into Darkness (2013) HDRip [IMAX]
  • Стартрек: Возмездие / Star Trek Into Darkness (2013) BDRip [H.264 / 1080p] [IMAX Edition] скачать через торрент бесплатно
  • Стартрек: Возмездие / Star Trek Into Darkness (2013) HDRip [H.264] [MP4|1024x436]
  • Стартрек: Возмездие / Star Trek Into Darkness (2013) 4K UltraHD BDRip [H.265 / 2160p] [Main10] [IMAX]


    • Комментарии (0):

      Информация

      Информация

        Посетители, находящиеся в группе Гости, не могут оставлять комментарии в данной новости.

        ↓ Меню




        ↓ Опрос

        Вы добавили сайт в закладки?
        Да
        Нет


        Top 10 за месяц (Фильмы)