.
Авторизация | Регистрация
Хочешь лучшие торренты? Добавь свой email!
Добавить

Торрент скачать бесплатно

» » Расплата / Payback (1999) BDRip [H.264 / 1080p-LQ] [Directors Cut] торрент скачать бесплатно



    Расплата / Payback (1999) BDRip [H.264 / 1080p-LQ] [Directors Cut] торрент скачать бесплатно

    Опубликовал: Админ | Дата: 10-09-2017, 11:46 | Просмотров: 0

    Производство: США
    Жанр: Боевик, Триллер, Криминал, Драма
    Режиссер: Брайан Хелгеленд

    Актеры
    Мэл Гибсон, Грегг Генри, Мария Белло, Дэвид Пэймер, Билл Дьюк, Дебора Кара Ангер, Джон Гловер, Уильям Дивэйн, Люси Лью, Джек Конли

    Описание

    Член преступного могущественного синдиката должен заплатить своим боссам 130 тыс. долларов. Самое интересное в это истории, что об этом Потап ничего не знал. Поэтому он приглашает Портера на дело. Вашими молитвами, сказал кто то из толпы, к чему не понятно. Вместе с ним и его женой они грабят автомобиль, в котором азиаты перевозят грязные деньги.
    Но жене Портера подлый мафиози подсовывает фотографию мужа в объятиях проститутки, и супруга всаживает в благоверного пулю за пулей. Сочтя его мертвым, они забирают деньги и уезжают. Однако Портер не умер и через пять месяцев вернулся, чтобы расплатиться — вернуть свои деньги и отомстить.

    Возраст: 18+ (зрителям, достигшим 18 лет. запрещено для детей)
    Рейтинг MPAA: R (лицам до 17 лет обязательно присутствие взрослого)
    Продолжительность: 01: 30: 18
    Качество видео: BDRip
    Перевод: Многоголосый закадровый
    Субтитры: отсутствуют
    Видео: AVC/H.264, 1920x800 (2.40: 1), ~5713 Kbps
    Аудио: AC3, 6 ch, 448 Kbps

    General
    Unique ID : 209071087479114419096626846695191731528 (0x9D49A07530657FF2BF601A3332E7DD48)
    Complete name : J: СборкаРасплата. - Payback 1999 DC BDRip 1080p.АС3.mkv
    Format : Matroska
    Format version : Version 4/Version 2
    File size : 3.89 GiB
    Duration : 1 h 30 min
    Overall bit rate : 6 162 kb/s
    Encoded date : UTC 2017-08-13 15: 55: 59
    Writing application : mkvmerge v7.3.0 (\'Nouages\') 64bit built on Oct 22 2014 18: 53: 34
    Writing library : libebml v1.3.0 + libmatroska v1.4.1
    Video #1
    ID : 1
    Format : AVC
    Format/Info : Advanced Video Codec
    Format profile : High@L4
    Format settings, CABAC : Yes
    Format settings, ReFrames : 5 frames
    Codec ID : V_MPEG4/ISO/AVC
    Duration : 1 h 30 min
    Bit rate : 5 713 kb/s
    Width : 1 920 pixels
    Height : 800 pixels
    Display aspect ratio : 2.40: 1
    Frame rate mode : Constant
    Frame rate : 23.976 (24000/1001) FPS
    Color space : YUV
    Chroma subsampling : 4: 2: 0
    Bit depth : 8 bits
    Scan type : Progressive
    Bits/(Pixel*Frame) : 0.155
    Stream size : 3.60 GiB (93%)
    Writing library : x264 core 130 r2273 b3065e6
    Encoding settings : cabac=1/ref=5/deblock=1: -3: -3/analyse=0x3: 0x133/me=umh/subme=11/psy=1/psy_rd=1.00: 0.00/mixed_ref=1/me_range=32/chroma_me=1/trellis=2/8x8dct=1/cqm=0/deadzone=21, 11/fast_pskip=0/chroma_qp_offset=-2/threads=12/lookahead_threads=1/sliced_threads=0/nr=0/decimate=1/interlaced=0/bluray_compat=0/constrained_intra=0/bframes=6/b_pyramid=2/b_adapt=2/b_bias=0/direct=3/weightb=1/open_gop=0/weightp=2/keyint=240/keyint_min=24/scenecut=40/intra_refresh=0/rc_lookahead=180/rc=crf/mbtree=1/crf=21.8/qcomp=0.62/qpmin=0/qpmax=69/qpstep=4/ip_ratio=1.40/aq=1: 1.00
    Language : English
    Default : Yes
    Forced : No
    Color range : Limited
    Color primaries : BT.709
    Transfer characteristics : BT.709
    Matrix coefficients : BT.709
    Audio #2
    ID : 2
    Format : AC-3
    Format/Info : Audio Coding 3
    Mode extension : CM (complete main)
    Format settings, Endianness : Big
    Codec ID : A_AC3
    Duration : 1 h 30 min
    Bit rate mode : Constant
    Bit rate : 448 kb/s
    Channel(s) : 6 channels
    Channel positions : Front: L C R, Side: L R, LFE
    Sampling rate : 48.0 kHz
    Frame rate : 31.250 FPS (1536 spf)
    Bit depth : 16 bits
    Compression mode : Lossy
    Delay relative to video : 1 s 0 ms
    Stream size : 289 MiB (7%)
    Default : Yes
    Forced : No

    Скриншоты для ознакомления



    Все одноименные релизы в Клубе
    Время раздачи: Пн-Пт с 18: 00 до 22: 00 (до появления первых 3-5 скачавших)
    Прямая ссылка скачивания через uTorrent


    Расплата/Payback (1999) BDRip [H.264/1080p-LQ] [Directors Cut]
    загрузка...
    Рейтинг →
     (голосов: 1, оценка 3/5, голосовать можно 1 раз )

    Другие торренты по теме:

  • Расплата / Payback (Theatrical cut) (1999) BDRip [h264] [AVO] скачать через торрент бесплатно
  • Расплата / Payback (1994) DVDRip [H.264] [АVO]
  • Расплата / Payback [Theatrical Cut] (1999) BDRip [H.264 / 1080p]
  • Soldier of Fortune: Payback / Солдат удачи: Расплата (2008) [Ru] (1.1) Repack xGhost скачать через торрент бесплатно


    • Комментарии (0):

      Информация

      Информация

        Посетители, находящиеся в группе Гости, не могут оставлять комментарии в данной новости.

        ↓ Меню




        ↓ Опрос

        Вы добавили сайт в закладки?
        Да
        Нет


        Top 10 за месяц (Фильмы)