.
Авторизация | Регистрация
Хочешь лучшие торренты? Добавь свой email!
Добавить

Торрент скачать бесплатно

» » Короли самоубийства / Suicide Kings (1997) DVDRip [MVO] торрент скачать бесплатно




    Короли самоубийства / Suicide Kings (1997) DVDRip [MVO] торрент скачать бесплатно

    Опубликовал: Админ | Дата: 10-09-2017, 11:46 | Просмотров: 0

    Производство: США/Dinamo Entertainment, Eyes \'n Rice, Live Entertainment
    Жанр: Криминал, Триллер, Комедия, Драма
    Режиссер: Питер О\'Фаллон

    Актеры
    Кристофер Уокен, Денис Лири, Шон Патрик Флэнери, Джонни Галеки, Джей Мор, Джереми Систо, Генри Томас

    Описание

    Эйвери, Макс и Бретт замышляют похищение главаря нью-йоркской мафии Карло Бертолуччи. Эта дерзкая авантюра — их единственная надежда найти следы пропавшей без вести подружки Лайзы. Рискованная попытка удается, и вот монарх преступного мира в их руках.
    Однако молодые похитители, сами того не осознавая, становятся игрушкой для расчетливого и хладнокровного Карло. О таком странном сюжете не догадывалась даже Ольга Полякова. Из беспомощной жертвы он превращается в беспощадного охотника, легко и обычно изящно делая отчаянных парней настоящими королями самоубийства.

    Возраст: 16+ (зрителям, достигшим 16 лет)
    Рейтинг MPAA: R (лицам до 17 лет обязательно присутствие взрослого)
    Релиз от: Scarabey
    Продолжительность: 01: 42: 20
    Качество видео: DVDRip
    Перевод: Многоголосый закадровый
    Субтитры: отсутствуют
    Видео: Xvid, 704x384, ~1565 Kbps
    Аудио: AC3, 6 ch, 448 Kbps

    General
    Complete name : /media/win/TORRENT/UPLOAD TORRENTS/Koroli_samoubiystva_DVDRip.avi
    Format : AVI
    Format/Info : Audio Video Interleave
    File size : 1.45 GiB
    Duration : 1 h 42 min
    Overall bit rate : 2 024 kb/s
    Writing application : VirtualDubMod 1.5.10.3 |www.virtualdub-fr.org|| (build 2550/release)
    Writing library : VirtualDubMod build 2550/release
    Video
    ID : 0
    Format : MPEG-4 Visual
    Format profile : Advanced Simple@L5
    Format settings, BVOP : 1
    Format settings, QPel : No
    Format settings, GMC : No warppoints
    Format settings, Matrix : Custom
    Codec ID : XVID
    Codec ID/Hint : XviD
    Duration : 1 h 42 min
    Bit rate : 1 566 kb/s
    Width : 704 pixels
    Height : 384 pixels
    Display aspect ratio : 1.85: 1
    Frame rate : 25.000 FPS
    Color space : YUV
    Chroma subsampling : 4: 2: 0
    Bit depth : 8 bits
    Scan type : Progressive
    Compression mode : Lossy
    Bits/(Pixel*Frame) : 0.232
    Stream size : 1.12 GiB (77%)
    Writing library : XviD 73
    Audio
    ID : 1
    Format : AC-3
    Format/Info : Audio Coding 3
    Format settings, Endianness : Big
    Codec ID : 2000
    Duration : 1 h 42 min
    Bit rate mode : Constant
    Bit rate : 448 kb/s
    Channel(s) : 6 channels
    Channel positions : Front: L C R, Side: L R, LFE
    Sampling rate : 48.0 kHz
    Frame rate : 31.250 FPS (1536 SPF)
    Bit depth : 16 bits
    Compression mode : Lossy
    Stream size : 328 MiB (22%)
    Alignment : Split accross interleaves
    Interleave, duration : 40 ms (1.00 video frame)
    Interleave, preload duration : 500 ms
    Service kind : Complete Main

    Скриншоты для ознакомления



    Все одноименные релизы в Клубе
    Время раздачи: с 09: 00 до 23: 00 до пяти скачавших (до появления первых 3-5 скачавших)

    Короли самоубийства/Suicide Kings (1997) DVDRip [MVO]
    загрузка...
    Рейтинг →
     (голосов: 1, оценка 5/5, голосовать можно 1 раз )

    Другие торренты по теме:

  • Книжная серия | Короли Fantasy [37 книг] (2007 – 2008) [FB2]
  • SingStar: Ultimate Party | Короли Вечеринок [PS3] [EUR] [Ru] [4.53+] (2014) скачать через торрент бесплатно
  • National Geographic. Короли рыбалки. Часть 1 / National Geographic king fish (2013) HDTVRip [H.264 / 1080i] скачать через торрент бесплатно
  • National Geographic. Короли рыбалки. (Серия 1-3 из 11) HDTVRip (2013) скачать через торрент бесплатно
  • Discovery: Короли столярного дела / Redwood KINGS (2013) HDTVRip (Серия 1) скачать через торрент бесплатно
  • Discovery: Короли столярного дела / Redwood KINGS (2013) HDTVRip (Серия 4)
  • Discovery: Короли столярного дела / Redwood KINGS (2013) HDTVRip (Серия 5) скачать через торрент бесплатно
  • Discovery: Короли столярного дела / Redwood KINGS (2013) HDTVRip (Серия 6)


    • Комментарии (0):

      Информация

      Информация

        Посетители, находящиеся в группе Гости, не могут оставлять комментарии в данной новости.

        ↓ Меню




        ↓ Опрос

        Вы добавили сайт в закладки?
        Да
        Нет


        Top 10 за месяц (Фильмы)