.
Авторизация | Регистрация
Хочешь лучшие торренты? Добавь свой email!
Добавить

Торрент скачать бесплатно

» » Частный детектив / Lalpagueur (1976) HDTV [H.264 / 1080i-LQ] торрент скачать бесплатно




    Частный детектив / Lalpagueur (1976) HDTV [H.264 / 1080i-LQ] торрент скачать бесплатно

    Опубликовал: Админ | Дата: 10-09-2017, 11:46 | Просмотров: 0

    Производство: Франция, Cerito Films
    Жанр: Боевик, Детектив
    Режиссер: Филипп Лабро

    Актеры
    Жан-Поль Бельмондо, Бруно Кремер, Мюриэль Бельмондо, Жан-Люк Бутте, Патрик Фьерри, Жан-Пьер Жорри, Виктор Гарривье, Жан Негрони, Марсель Имхофф, Роже Бенаму, Патрис Шаплен-Миди, Жак Дестоп, Мишель Делакруа, Клод Броссе, Морис Озель и др.

    Описание

    Частный детектив разыскивает неуловимого хладнокровного убийцу по кличке Ястреб. Роже Пиляр - секретный агент, профессионал экстракласса, выполняющий особо сложные и высокооплачиваемые задания. Его заветная мечта - купить себе маленький остров в океане с пальмами на белом песке. Но это мечты. А в действительности ему предстоит найти и разоблачить серийного убийцу по кличке Ястреб, который использует молодых людей для ограбления банков и ювелирных магазинов, не оставляет никаких следов и убирает сообщников. Но один из них чудом остался жив...

    Возраст: 16+ (зрителям, достигшим 16 лет)
    Продолжительность: 01: 34: 24
    Качество видео: HDTV
    Перевод: Дублированный, многоголосый закадровый
    Субтитры: отсутствуют
    Видео: AVC/H.264, 1920x1080, ~6 468 Kbps
    Аудио 1: AC3, 48 KHz, 2ch, 192 kbps | Русский (Дубляж, Киностудия Ленфильм (вставки MVO))
    Аудио 2: AC3, 48 KHz, 2ch, 192 kbps | Русский (MVO, НТВ)
    Аудио 3: AC3, 48 KHz, 2ch, 192 kbps | Русский (MVO, ОРТ)
    Аудио 4: AC3, 48 KHz, 2ch, 192 kbps | Русский (MVO, Инис)
    Аудио 5: AC3, 48 KHz, 2ch, 384 kbps | Французский (Оригинал)

    Общее
    Уникальный идентификатор : 229568004600759532489092909606066323817 (0xACB5307EB4C88BA9B6ED5399DB520169)
    Полное имя : I: Жан-Поль БельмондоЧастный детективЧастный детектив. 1976 .mkv
    Формат : Matroska
    Версия формата : Version 4/Version 2
    Размер файла : 5, 08 Гбайт
    Продолжительность : 1 ч. Божий одуванчик, сказал кто то из толпы, к чему не понятно. 34 м.
    Общий поток : 7709 Кбит/сек
    Название фильма : Частный детектив
    Дата кодирования : UTC 2017-09-05 17: 42: 59
    Программа кодирования : mkvmerge v6.2.0 (\'Promised Land\') built on Apr 28 2013 12: 22: 01
    Библиотека кодирования : libebml v1.3.0 + libmatroska v1.4.0
    Attachment : Yes
    Видео
    Идентификатор : 1
    Формат : AVC
    Формат/Информация : Advanced Video Codec
    Профиль формата : High@L4.0
    Параметр CABAC формата : Да
    Параметр ReFrames формата : 4 кадра
    Идентификатор кодека : V_MPEG4/ISO/AVC
    Битрейт : 6468 Кбит/сек
    Ширина : 1920 пикселей
    Высота : 1080 пикселей
    Соотношение сторон : 16: 9
    Режим частоты кадров : Переменный
    Частота кадров в оригинале : 25, 000 кадров/сек
    Стандарт вещания : Component
    Цветовое пространство : YUV
    Субдискретизация насыщенности : 4: 2: 0
    Битовая глубина : 8 бит
    Тип развёртки : MBAFF
    Порядок развёртки : Верхнее поле первое
    Заголовок : Частный детектив. 1976
    Default : Да
    Forced : Нет
    Основные цвета : BT.709
    Характеристики трансфера : BT.709
    Коэффициенты матрицы : BT.709
    Аудио #1
    Идентификатор : 2
    Формат : AC-3
    Формат/Информация : Audio Coding 3
    Расширение режима : CM (complete main)
    Параметр Endianness формата : Big
    Идентификатор кодека : A_AC3
    Продолжительность : 1 ч. 34 м.
    Вид битрейта : Постоянный
    Битрейт : 192 Кбит/сек
    Каналы : 2 канала
    Расположение каналов : Front: L R
    Частота : 48, 0 КГц
    Битовая глубина : 16 бит
    Метод сжатия : С потерями
    Задержка видео : -20 мс.
    Размер потока : 130 Мбайт (2%)
    Заголовок : AC3, 48 KHz, 2ch, 192 kbps | Русский (Дубляж, Киностудия Ленфильм (вставки MVO))
    Язык : Russian
    Default : Да
    Forced : Нет
    Аудио #2
    Идентификатор : 3
    Формат : AC-3
    Формат/Информация : Audio Coding 3
    Расширение режима : CM (complete main)
    Параметр Endianness формата : Big
    Идентификатор кодека : A_AC3
    Продолжительность : 1 ч. 34 м.
    Вид битрейта : Постоянный
    Битрейт : 192 Кбит/сек
    Каналы : 2 канала
    Расположение каналов : Front: L R
    Частота : 48, 0 КГц
    Битовая глубина : 16 бит
    Метод сжатия : С потерями
    Задержка видео : -20 мс.
    Размер потока : 130 Мбайт (2%)
    Заголовок : AC3, 48 KHz, 2ch, 192 kbps | Русский (MVO, НТВ)
    Язык : Russian
    Default : Нет
    Forced : Нет
    Аудио #3
    Идентификатор : 4
    Формат : AC-3
    Формат/Информация : Audio Coding 3
    Расширение режима : CM (complete main)
    Параметр Endianness формата : Big
    Идентификатор кодека : A_AC3
    Продолжительность : 1 ч. 34 м.
    Вид битрейта : Постоянный
    Битрейт : 192 Кбит/сек
    Каналы : 2 канала
    Расположение каналов : Front: L R
    Частота : 48, 0 КГц
    Битовая глубина : 16 бит
    Метод сжатия : С потерями
    Задержка видео : -20 мс.
    Размер потока : 130 Мбайт (2%)
    Заголовок : AC3, 48 KHz, 2ch, 192 kbps | Русский (MVO, ОРТ)
    Язык : Russian
    Default : Нет
    Forced : Нет
    Аудио #4
    Идентификатор : 5
    Формат : AC-3
    Формат/Информация : Audio Coding 3
    Расширение режима : CM (complete main)
    Параметр Endianness формата : Big
    Идентификатор кодека : A_AC3
    Продолжительность : 1 ч. Самое интересное в это истории, что об этом Человек паук ничего не знал. 34 м.
    Вид битрейта : Постоянный
    Битрейт : 192 Кбит/сек
    Каналы : 2 канала
    Расположение каналов : Front: L R
    Частота : 48, 0 КГц
    Битовая глубина : 16 бит
    Метод сжатия : С потерями
    Задержка видео : -20 мс.
    Размер потока : 130 Мбайт (2%)
    Заголовок : AC3, 48 KHz, 2ch, 192 kbps | Русский (MVO, Инис)
    Язык : Russian
    Default : Нет
    Forced : Нет
    Аудио #5
    Идентификатор : 6
    Формат : AC-3
    Формат/Информация : Audio Coding 3
    Расширение режима : CM (complete main)
    Параметр Endianness формата : Big
    Идентификатор кодека : A_AC3
    Продолжительность : 1 ч. 34 м.
    Вид битрейта : Постоянный
    Битрейт : 320 Кбит/сек
    Каналы : 2 канала
    Расположение каналов : Front: L R
    Частота : 48, 0 КГц
    Битовая глубина : 16 бит
    Метод сжатия : С потерями
    Задержка видео : -20 мс.
    Размер потока : 216 Мбайт (4%)
    Заголовок : AC3, 48 KHz, 2ch, 384 kbps | Французский (Оригинал)
    Язык : French
    Default : Нет
    Forced : Нет

    Скриншоты для ознакомления



    Все одноименные релизы в Клубе
    Время раздачи: 24/7 до 5 скачавших (до появления первых 3-5 скачавших)

    Частный детектив/Lalpagueur (1976) HDTV [H.264/1080i-LQ]
    загрузка...
    Рейтинг →
     (голосов: 1, оценка 4/5, голосовать можно 1 раз )

    Другие торренты по теме:

  • Частный детектив / Lalpagueur (1976) BDRip [H.264]


    • Комментарии (0):

      Информация

      Информация

        Посетители, находящиеся в группе Гости, не могут оставлять комментарии в данной новости.

        ↓ Меню




        ↓ Опрос

        Вы добавили сайт в закладки?
        Да
        Нет


        Top 10 за месяц (Фильмы)