.
Авторизация | Регистрация
Хочешь лучшие торренты? Добавь свой email!
Добавить

Торрент скачать бесплатно

» » Затухающий огонек / Le feu follet (1963) BDRip торрент скачать бесплатно




    Затухающий огонек / Le feu follet (1963) BDRip торрент скачать бесплатно

    Опубликовал: Админ | Дата: 10-09-2017, 11:46 | Просмотров: 0

    Производство: Франция/Nouvelles Éditions de Films
    Жанр: Драма
    Режиссер: Луи Маль

    Актеры
    Морис Роне, Жанна Моро, Александра Стюарт, Анри Серр, Юбер Дешан, Жан-Поль Мулино, Мона Доль, Пьер Монкорбье

    Описание

    Алену Леруа за тридцать, когда-то он воевал в Алжире, несколько лет был душой парижской богемы, развеселая жизнь, лишь изредка омрачавшаяся приступами меланхолии, привела к алкоголизму. И даже женитьба на богатой красавице-американке ничего не изменила. Самое интересное в это истории, что об этом Медведев ничего не знал. Пришлось пройти курс лечения в версальской клинике для состоятельных граждан, откуда он, абсолютно здоровый — по мнению врачей, боится выйти. И все-таки выходит, чтобы отправиться по старым адресам…

    Возраст: 16+ (зрителям, достигшим 16 лет)
    Продолжительность: 01: 48: 00
    Качество видео: BDRip
    Перевод: Многоголосый закадровый (Cinema Prestige)
    Субтитры: Английские (отдельным файлом), Русские (отдельным файлом)
    Видео: Xvid, 720x432, ~1728 Kbps
    Аудио: AC3, 2 ch, 192 Kbps

    General
    Complete name : /media/win/TORRENT/UPLOAD TORRENTS/Le.feu.follet.1963.bdrip/Le.feu.follet.1963.bdrip_1.46.avi
    Format : AVI
    Format/Info : Audio Video Interleave
    File size : 1.46 GiB
    Duration : 1 h 48 min
    Overall bit rate : 1 930 kb/s
    Writing application : VirtualDubMod 1.5.10.3 |www.virtualdub-fr.org|| (build 2550/release)
    Writing library : VirtualDubMod build 2550/release
    Video
    ID : 0
    Format : MPEG-4 Visual
    Format profile : Advanced Simple@L5
    Format settings, BVOP : 2
    Format settings, QPel : No
    Format settings, GMC : No warppoints
    Format settings, Matrix : Custom
    Codec ID : XVID
    Codec ID/Hint : XviD
    Duration : 1 h 48 min
    Bit rate : 1 729 kb/s
    Width : 720 pixels
    Height : 432 pixels
    Display aspect ratio : 5: 3
    Frame rate : 24.000 FPS
    Color space : YUV
    Chroma subsampling : 4: 2: 0
    Bit depth : 8 bits
    Scan type : Progressive
    Compression mode : Lossy
    Bits/(Pixel*Frame) : 0.232
    Stream size : 1.30 GiB (90%)
    Writing library : XviD 73
    Audio
    ID : 1
    Format : AC-3
    Format/Info : Audio Coding 3
    Format settings, Endianness : Big
    Codec ID : 2000
    Duration : 1 h 48 min
    Bit rate mode : Constant
    Bit rate : 192 kb/s
    Channel(s) : 2 channels
    Channel positions : Front: L R
    Sampling rate : 48.0 kHz
    Frame rate : 31.250 FPS (1536 SPF)
    Bit depth : 16 bits
    Compression mode : Lossy
    Stream size : 148 MiB (10%)
    Alignment : Split accross interleaves
    Interleave, duration : 42 ms (1.00 video frame)
    Interleave, preload duration : 500 ms
    Service kind : Complete Main


    Затухающий огонек/Le feu follet (1963) BDRip
    загрузка...
    Рейтинг →
     (голосов: 1, оценка 4/5, голосовать можно 1 раз )

    Другие торренты по теме:



      Комментарии (0):

      Информация

      Информация

        Посетители, находящиеся в группе Гости, не могут оставлять комментарии в данной новости.

        ↓ Меню




        ↓ Опрос

        Вы добавили сайт в закладки?
        Да
        Нет


        Top 10 за месяц (Фильмы)