.
Авторизация | Регистрация
Хочешь лучшие торренты? Добавь свой email!
Добавить

Торрент скачать бесплатно

» » Бахубали: Завершение / Bahubali 2: The Conclusion (2017) BDRip [H.264 / 1080p] [MVO] торрент скачать бесплатно




    Бахубали: Завершение / Bahubali 2: The Conclusion (2017) BDRip [H.264 / 1080p] [MVO] торрент скачать бесплатно

    Опубликовал: Админ | Дата: 10-09-2017, 11:46 | Просмотров: 0

    Производство: Индия, Arka Mediaworks, Beyond Studio Entertainments VFX
    Жанр: Фэнтези, Боевик, Приключения, Драма
    Режиссер: С.С. Раджамули

    Актеры
    рабхас, Рана Даггубати, Анушка Шетти, Таманна Бхатия, Сатхьярадж, Рамья Кришна, Нассер, Суббараджу

    Описание

    Старый Каттаппа рассказывает Шиве, почему убил его отца Амарендру. После того, как тот был усыновлён королевой Шивагами, старший сводный брат Бхаллаладева всегда ему завидовал. Зависть достигла апогея после битвы с дикими племенами, когда Шивагами нарекла младшего сына наследником королевства. Бхаллаладева и его хитрый отец начинают плести грязные интриги, чтобы сжить Амарендру со свету.

    Релиз от: HDReactor
    Продолжительность: 02: 46: 49
    Качество видео: BDRip
    Перевод: Многоголосый закадровый
    Автор перевода: HoneyHaseena
    Субтитры: Русские (на песни), английские (полные)
    Видео: AVC/H.264, 1920x804, ~8607 Kbps
    Аудио #1: Русский, AC3, 2 ch, 192 Kbps
    Аудио #2: Хинди, AC3, 6 ch, 448 Kbps

    Формат : Matroska
    Версия формата : Version 2
    Размер файла : 10, 8 Гбайт
    Продолжительность : 2 ч. 46 м.
    Общий поток : 9247 Кбит/сек
    Дата кодирования : UTC 2017-09-06 07: 33: 59
    Программа кодирования : mkvmerge v6.5.0 (\'Isn\'t she lovely\') built on Oct 20 2013 12: 50: 05
    Библиотека кодирования : libebml v1.3.0 + libmatroska v1.4.1
    Обложка : Yes
    Attachments : cover1.jpg
    Видео
    Идентификатор : 1
    Формат : AVC
    Формат/Информация : Advanced Video Codec
    Профиль формата : High@L4.1
    Параметр CABAC формата : Да
    Параметр RefFrames формата : 5 кадров
    Идентификатор кодека : V_MPEG4/ISO/AVC
    Продолжительность : 2 ч. 46 м.
    Битрейт : 8607 Кбит/сек
    Ширина : 1920 пикселей
    Высота : 804 пикселя
    Соотношение сторон : 2, 40: 1
    Режим частоты кадров : Постоянный
    Частота кадров : 24, 000 кадра/сек
    Цветовое пространство : YUV
    Субдискретизация насыщенности : 4: 2: 0
    Битовая глубина : 8 бит
    Тип развёртки : Прогрессивная
    Бит/(Пиксели*Кадры) : 0.232
    Размер потока : 9, 81 Гбайт (91%)
    Заголовок : ~V~
    Библиотека кодирования : x264 core 152 r2851 ba24899
    Настройки программы : cabac=1/ref=5/deblock=1: -3: -3/analyse=0x3: 0x133/me=umh/subme=11/psy=1/psy_rd=1.00: 0.00/mixed_ref=1/me_range=32/chroma_me=1/trellis=2/8x8dct=1/cqm=0/deadzone=21, 11/fast_pskip=0/chroma_qp_offset=-2/threads=12/lookahead_threads=1/sliced_threads=0/nr=0/decimate=0/interlaced=0/bluray_compat=0/constrained_intra=0/bframes=9/b_pyramid=2/b_adapt=2/b_bias=0/direct=3/weightb=1/open_gop=0/weightp=2/keyint=240/keyint_min=24/scenecut=40/intra_refresh=0/rc=2pass/mbtree=0/bitrate=8607/ratetol=1.0/qcomp=0.60/qpmin=0/qpmax=69/qpstep=4/cplxblur=20.0/qblur=0.5/ip_ratio=1.16/pb_ratio=1.28/aq=3: 0.80
    Язык : English
    Default : Да
    Forced : Нет
    Аудио #1
    Идентификатор : 2
    Формат : AC-3
    Формат/Информация : Audio Coding 3
    Параметр Endianness формата : Big
    Идентификатор кодека : A_AC3
    Продолжительность : 2 ч. 46 м.
    Вид битрейта : Постоянный
    Битрейт : 192 Кбит/сек
    Каналы : 2 канала
    Расположение каналов : Front: L R
    Частота : 48, 0 КГц
    Частота кадров : 31, 250 кадров/сек (1536 SPF)
    Битовая глубина : 16 бит
    Метод сжатия : С потерями
    Размер потока : 229 Мбайт (2%)
    Заголовок : MVO
    Язык : Russian
    Default : Да
    Forced : Нет
    Аудио #2
    Идентификатор : 3
    Формат : AC-3
    Формат/Информация : Audio Coding 3
    Параметр Endianness формата : Big
    Идентификатор кодека : A_AC3
    Продолжительность : 2 ч. О таком странном сюжете не догадывалась даже Бейонсе. 46 м.
    Вид битрейта : Постоянный
    Битрейт : 448 Кбит/сек
    Каналы : 6 каналов
    Расположение каналов : Front: L C R, Side: L R, LFE
    Частота : 48, 0 КГц
    Частота кадров : 31, 250 кадров/сек (1536 SPF)
    Битовая глубина : 16 бит
    Метод сжатия : С потерями
    Размер потока : 535 Мбайт (5%)
    Язык : Hindi
    Default : Нет
    Forced : Нет
    Текст #1
    Идентификатор : 4
    Формат : UTF-8
    Идентификатор кодека : S_TEXT/UTF8
    Идентификатор кодека/Информация : UTF-8 Plain Text
    Заголовок : Forc/на песни вариант1
    Язык : Russian
    Default : Да
    Forced : Нет
    Текст #2
    Идентификатор : 5
    Формат : UTF-8
    Идентификатор кодека : S_TEXT/UTF8
    Идентификатор кодека/Информация : UTF-8 Plain Text
    Заголовок : Forc/на песни вариант2
    Язык : Russian
    Default : Нет
    Forced : Нет
    Текст #3
    Идентификатор : 6
    Формат : UTF-8
    Идентификатор кодека : S_TEXT/UTF8
    Идентификатор кодека/Информация : UTF-8 Plain Text
    Заголовок : Full
    Язык : English
    Default : Нет
    Forced : Нет
    Меню
    00: 00: 00.000 : en: Chapter 1
    00: 02: 42.375 : en: Chapter 2
    00: 05: 11.458 : en: Chapter 3
    00: 08: 24.458 : en: Chapter 4
    00: 16: 41.541 : en: Chapter 5
    00: 30: 31.791 : en: Chapter 6
    00: 39: 21.791 : en: Chapter 7
    00: 42: 57.500 : en: Chapter 8
    00: 46: 24.541 : en: Chapter 9
    00: 51: 02.416 : en: Chapter 10
    01: 07: 36.416 : en: Chapter 11
    01: 11: 51.041 : en: Chapter 12
    01: 18: 27.875 : en: Chapter 13
    01: 27: 20.000 : en: Chapter 14
    01: 38: 15.333 : en: Chapter 15
    01: 43: 27.416 : en: Chapter 16
    01: 51: 08.166 : en: Chapter 17
    02: 01: 31.000 : en: Chapter 18
    02: 13: 27.833 : en: Chapter 19
    02: 39: 25.250 : en: Chapter 20

    Скриншоты для ознакомления




    Все одноименные релизы в Клубе
    Время раздачи: 27/7 (до появления первых 3-5 скачавших)

    Бахубали: Завершение/Bahubali 2: The Conclusion (2017) BDRip [H.264/1080p] [MVO]
    загрузка...
    Рейтинг →
     (голосов: 1, оценка 4/5, голосовать можно 1 раз )

    Другие торренты по теме:

  • Бахубали: Завершение / Bahubali 2: The Conclusion (2017) WEB-DLRip


    • Комментарии (0):

      Информация

      Информация

        Посетители, находящиеся в группе Гости, не могут оставлять комментарии в данной новости.

        ↓ Меню




        ↓ Опрос

        Вы добавили сайт в закладки?
        Да
        Нет


        Top 10 за месяц (Фильмы)