.
Авторизация | Регистрация
Хочешь лучшие торренты? Добавь свой email!
Добавить

Торрент скачать бесплатно

» » Дорогая Луиза / Chere Louise (1972) VHSRip [MVO] торрент скачать бесплатно




    Дорогая Луиза / Chere Louise (1972) VHSRip [MVO] торрент скачать бесплатно

    Опубликовал: Админ | Дата: 10-09-2017, 11:46 | Просмотров: 0

    Производство: Франция, Италия/Compagnia Cinematografica Champion, Les Films Ariane, PECF
    Жанр: Драма, Комедия
    Режиссер: Филипп де Брока

    Актеры
    Жанна Моро, Джулиан Негулеско, Диди Перего, Джилл Ларсен, Люсьен Легран

    Описание

    После развода и смерти матери стареющая Луиза перебирается в маленький городок Аннеси и становится школьной учительницей. В тот же городок забредает молодой итальянец Луиджи, который вскоре станет для одинокой Луизы и любовником, и сыном. Ревнивая женщина отчаянно оберегает свой предмет страсти от соперниц, но хорошо понимает, что безвольный и ветреный Луиджи вряд ли останется с ней навсегда…

    Релиз от: laurelg
    Продолжительность: 01: 31: 37
    Качество видео: VHSRip
    Перевод: Двуголосый закадровый
    Субтитры: отсутствуют
    Видео: DivX 5, 640x480, ~1728 Kbps
    Аудио: MP3, 2 ch, 128 Kbps

    General
    Complete name : /media/win/TORRENT/UPLOAD TORRENTS/chere_luise.avi
    Format : AVI
    Format/Info : Audio Video Interleave
    File size : 1.19 GiB
    Duration : 1 h 31 min
    Overall bit rate : 1 866 kb/s
    Writing library : Boilsoft Joiner build 2411/release
    Video
    ID : 0
    Format : MPEG-4 Visual
    Format profile : Simple@L1
    Format settings, BVOP : No
    Format settings, QPel : No
    Format settings, GMC : No warppoints
    Format settings, Matrix : Default (H.263)
    Codec ID : DX50
    Codec ID/Hint : DivX 5
    Duration : 1 h 31 min
    Bit rate : 1 728 kb/s
    Width : 640 pixels
    Height : 480 pixels
    Display aspect ratio : 4: 3
    Frame rate : 25.000 FPS
    Color space : YUV
    Chroma subsampling : 4: 2: 0
    Bit depth : 8 bits
    Scan type : Progressive
    Compression mode : Lossy
    Bits/(Pixel*Frame) : 0.225
    Stream size : 1.11 GiB (93%)
    Writing library : Libavcodec
    Audio
    ID : 1
    Format : MPEG Audio
    Format version : Version 1
    Format profile : Layer 3
    Codec ID : 55
    Codec ID/Hint : MP3
    Duration : 1 h 31 min
    Bit rate mode : Constant
    Bit rate : 128 kb/s
    Channel(s) : 2 channels
    Sampling rate : 44.1 kHz
    Compression mode : Lossy
    Stream size : 83.9 MiB (7%)
    Alignment : Split accross interleaves
    Interleave, duration : 40 ms (1.00 video frame)
    Interleave, preload duration : 500 ms


    Дорогая Луиза/Chere Louise (1972) VHSRip [MVO]
    загрузка...
    Рейтинг →
     (голосов: 1, оценка 3/5, голосовать можно 1 раз )

    Другие торренты по теме:

  • Дорогая, похоже, я тебя убил / Kochanie, chyba cie zabitem (2014) DVDRip [VO]
  • Дорогая, похоже, я тебя убил / Kochanie, chyba cie zabilem (2014) DVDRip
  • Маша и Медведь: Дорогая передача (2015) WEBRip (Серия 49) скачать через торрент бесплатно
  • Дорогая Брижит / Dear Brigitte (1965) DVDRip [H.264] [VO] скачать через торрент бесплатно
  • Галина Тимченко и др. | Дорогая редакция. Подлинная история "Ленты.ру", рассказанная ее создателями (2015) [FB2] скачать через торрент бесплатно
  • Юджин Пеппероу | Если ты хочешь, дорогая (2016) [MP3]
  • Дорогая Элеонора / Dear Eleanor (2015) WEB-DLRip
  • Дорогая Элеонора / Dear Eleanor (2016) WEB-DLRip [H.264 / 720p-LQ]


    • Комментарии (0):

      Информация

      Информация

        Посетители, находящиеся в группе Гости, не могут оставлять комментарии в данной новости.

        ↓ Меню




        ↓ Опрос

        Вы добавили сайт в закладки?
        Да
        Нет


        Top 10 за месяц (Фильмы)