.
Авторизация | Регистрация
Хочешь лучшие торренты? Добавь свой email!
Добавить

Торрент скачать бесплатно

» » Тайна мотеля «Медовый месяц» / Fleisch (1979) DVDRip [H.264] торрент скачать бесплатно




    Тайна мотеля «Медовый месяц» / Fleisch (1979) DVDRip [H.264] торрент скачать бесплатно

    Опубликовал: Админ | Дата: 10-09-2017, 11:46 | Просмотров: 0

    Производство: Германия (ФРГ)/ Pentagramma, Zweites Deutsches Fernsehen (ZDF)
    Жанр: Ужасы, Триллер
    Режиссер: Райнер Эрлер
    Продюсер: Райнер Эрлер, Хельмут Расп

    Актеры
    Ютта Шпайдель, Вольф Рот, Герберт Герман, Шарлотта Керр, Кристоф Линдерт, Боб Каннингэм, Теди Элтис, Бен Зеллер, Манфред Леманн

    Описание

    О похищениях людей и насильственной трансплантации человеческих органов, от молодых и бедных туристов, к богатым и больным. В маленьком отеле часто пропадают постояльцы, особенно приезжие. Оказывается за всеми таинственными исчезновениями стоит некий доктор, который занимается продажей органов на черном рынке.

    Возраст: 16+ (зрителям, достигшим 16 лет)
    Релиз от: Охрана (NNMCLUB)
    Продолжительность: 01: 48: 59
    Качество видео: DVDRip
    Перевод: Дублированный (киностудия Мосфильм + VO А. Лагута на непереведённые места)
    Субтитры: Отсутствуют
    Видео: AVC/H.264, 720x544, ~1915 Kbps
    Аудио 1: Русский, AC3, 2 ch, 192 Kbps, 48.0 kHz
    Аудио 2: Немецкий, AC3, 2 ch, 192 Kbps, 48.0 kHz

    General
    Unique ID : 206876181453978384580886413840398872175 (0x9BA2E73C53C524C381174FD50986EE6F)
    Complete name : F: DownloadsТайна мотеля Медовый месяц. 1979. NNMCLUB.mkv
    Format : Matroska
    Format version : Version 4/Version 2
    File size : 1.75 GiB
    Duration : 1h 48mn
    Overall bit rate : 2 301 Kbps
    Encoded date : UTC 2017-09-03 13: 51: 47
    Writing application : mkvmerge v7.0.0 (\'Where We Going\') 32bit built on Jun 9 2014 15: 08: 34
    Writing library : libebml v1.3.0 + libmatroska v1.4.1
    DURATION : 01: 48: 59.648000000
    NUMBER_OF_FRAMES : 204364
    NUMBER_OF_BYTES : 156951552
    _STATISTICS_WRITING_APP : mkvmerge v7.0.0 (\'Where We Going\') 32bit built on Jun 9 2014 15: 08: 34
    _STATISTICS_WRITING_DATE_UTC : 2017-09-03 13: 51: 47
    _STATISTICS_TAGS : BPS DURATION NUMBER_OF_FRAMES NUMBER_OF_BYTES
    Video
    ID : 1
    Format : AVC
    Format/Info : Advanced Video Codec
    Format profile : High@L4.1
    Format settings, CABAC : Yes
    Format settings, ReFrames : 12 frames
    Codec ID : V_MPEG4/ISO/AVC
    Duration : 1h 48mn
    Bit rate : 1 915 Kbps
    Width : 720 pixels
    Height : 544 pixels
    Display aspect ratio : 4: 3
    Frame rate mode : Constant
    Frame rate : 25.000 fps
    Color space : YUV
    Chroma subsampling : 4: 2: 0
    Bit depth : 8 bits
    Scan type : Progressive
    Bits/(Pixel*Frame) : 0.196
    Stream size : 1.42 GiB (81%)
    Title : Fleisch
    Writing library : x264 core 125 r2208 d9d2288
    Encoding settings : cabac=1/ref=12/deblock=1: -1: -1/analyse=0x3: 0x133/me=umh/subme=10/psy=1/psy_rd=1.00: 0.10/mixed_ref=1/me_range=32/chroma_me=1/trellis=2/8x8dct=1/cqm=0/deadzone=21, 11/fast_pskip=0/chroma_qp_offset=-3/threads=6/lookahead_threads=1/sliced_threads=0/nr=0/decimate=0/interlaced=0/bluray_compat=0/constrained_intra=0/bframes=7/b_pyramid=2/b_adapt=2/b_bias=0/direct=3/weightb=1/open_gop=0/weightp=2/keyint=250/keyint_min=25/scenecut=40/intra_refresh=0/rc_lookahead=60/rc=2pass/mbtree=1/bitrate=1915/ratetol=1.0/qcomp=0.60/qpmin=0/qpmax=69/qpstep=4/cplxblur=20.0/qblur=0.5/ip_ratio=1.40/aq=1: 1.00
    Language : German
    Default : Yes
    Forced : No
    Audio #1
    ID : 2
    Format : AC-3
    Format/Info : Audio Coding 3
    Mode extension : CM (complete main)
    Format settings, Endianness : Big
    Codec ID : A_AC3
    Duration : 1h 48mn
    Bit rate mode : Constant
    Bit rate : 192 Kbps
    Channel(s) : 2 channels
    Channel positions : Front: L R
    Sampling rate : 48.0 KHz
    Bit depth : 16 bits
    Compression mode : Lossy
    Stream size : 150 MiB (8%)
    Title : Дубляж, Мосфильм
    Language : Russian
    Default : Yes
    Forced : No
    Audio #2
    ID : 3
    Format : AC-3
    Format/Info : Audio Coding 3
    Mode extension : CM (complete main)
    Format settings, Endianness : Big
    Codec ID : A_AC3
    Duration : 1h 48mn
    Bit rate mode : Constant
    Bit rate : 192 Kbps
    Channel(s) : 2 channels
    Channel positions : Front: L R
    Sampling rate : 48.0 KHz
    Bit depth : 16 bits
    Compression mode : Lossy
    Stream size : 150 MiB (8%)
    Title : Оригинал
    Language : German
    Default : No
    Forced : No

    Скриншоты для ознакомления




    Все одноименные релизы в Клубе
    Время раздачи: с 13: 00 до 01: 00 МСК, выходные круглосуточно (до появления первых 3-5 скачавших)

    Тайна мотеля «Медовый месяц»/Fleisch (1979) DVDRip [H.264]
    загрузка...
    Рейтинг →
     (голосов: 1, оценка 3/5, голосовать можно 1 раз )

    Другие торренты по теме:

  • NG. Тайна морского дьявола / Тайна Морского Дьявола (2011) HDTVRip [H.264 / 1080i-LQ]
  • Военная тайна с Игорем Прокопенко (27.09.2014) SATRip
  • Миккель Биркегор | Тайна "Libri di Luсa" (2014) [MP3]
  • Тайна королевы Анны или Мушкетеры тридцать лет спустя (1993) DVDRip [H.264] скачать через торрент бесплатно
  • Военная тайна с Игорем Прокопенко (2014.10.04) SATRip скачать через торрент бесплатно
  • Тайна Туринской Плащаницы. Епископ Василий(Родзянко) (2006) DVD5
  • Военная тайна с Игорем Прокопенко (2014.10.11) SATRip
  • Тайна инспектора Пита / Палач Кейтер-Стрит / The Inspector Pitt Mysteries / The Cater Street Hangman (1998) TVRip


    • Комментарии (0):

      Информация

      Информация

        Посетители, находящиеся в группе Гости, не могут оставлять комментарии в данной новости.

        ↓ Меню




        ↓ Опрос

        Вы добавили сайт в закладки?
        Да
        Нет


        Top 10 за месяц (Фильмы)