.
Авторизация | Регистрация
Хочешь лучшие торренты? Добавь свой email!
Добавить

Торрент скачать бесплатно

» » Королева Шантеклера / La reina del Chantecler (1962) WEB-DLRip [H.264] торрент скачать бесплатно




    Королева Шантеклера / La reina del Chantecler (1962) WEB-DLRip [H.264] торрент скачать бесплатно

    Опубликовал: Админ | Дата: 10-09-2017, 11:46 | Просмотров: 0

    Производство: Испания, Suevia Films S.A.
    Жанр: Драма, Мелодрама
    Режиссер: Рафаэль Хиль

    Актеры
    Сара Монтьель, Альберто де Мендоса, Луиджи Джулиани, Грета Чи, Жерар Тиши, Амелия Де Ла Торре, Милагрос Леал, Хулия Каба Альба

    Описание

    Музыкальный фильм о трагической любви. Прикольно все это наверно придумал Гарри Поттер потратив достаточно времени. Красавица Черита скрывает о т своего возлюбленного Санти, что она певица кабаре, так как чопорное семейство Санти придерживается старых устоев. Санти случайно узнает правду о Черите…

    Возраст: 12+ (зрителям, достигшим 12 лет)
    Рейтинг MPAA: PG-13 (детям до 13 лет просмотр нежелателен)
    Релиз от: smithland
    Продолжительность: 01: 48: 49
    Качество видео: WEB-DLRip
    Перевод: Многоголосый закадровый
    Субтитры: отсутствуют
    Видео: AVC/H.264, 720x576@1024x576, ~1681 kb/s
    Аудио: AC3, 2 ch, 224 kb/s

    General
    Unique ID : 242653520527824808278181406957276523744 (0xB68D5E3DBD02CCD9B927CFFCDFD86CE0)
    Complete name : Королева Шантеклера.mkv
    Format : Matroska
    Format version : Version 4/Version 2
    File size : 1.45 GiB
    Duration : 1 h 48 min
    Overall bit rate : 1 907 kb/s
    Movie name : Королева Шантеклера (rip by smithland)
    Encoded date : UTC 2017-09-07 14: 33: 34
    Writing application : mkvmerge v10.0.0 (\'To Drown In You\') 64bit
    Writing library : libebml v1.3.4 + libmatroska v1.4.5
    Cover : Yes
    Attachments : COVER.png
    Video
    ID : 1
    Format : AVC
    Format/Info : Advanced Video Codec
    Format profile : High@L4.1
    Format settings, CABAC : Yes
    Format settings, ReFrames : 4 frames
    Format settings, GOP : M=4, N=25
    Codec ID : V_MPEG4/ISO/AVC
    Duration : 1 h 48 min
    Bit rate : 1 681 kb/s
    Width : 720 pixels
    Height : 576 pixels
    Display aspect ratio : 16: 9
    Original display aspect ratio : 16: 9
    Frame rate mode : Constant
    Frame rate : 25.000 FPS
    Standard : PAL
    Color space : YUV
    Chroma subsampling : 4: 2: 0
    Bit depth : 8 bits
    Scan type : Progressive
    Bits/(Pixel*Frame) : 0.162
    Stream size : 1.28 GiB (88%)
    Language : Russian
    Default : Yes
    Forced : Yes
    Audio
    ID : 2
    Format : AC-3
    Format/Info : Audio Coding 3
    Mode extension : CM (complete main)
    Format settings, Endianness : Big
    Codec ID : A_AC3
    Duration : 1 h 48 min
    Bit rate mode : Constant
    Bit rate : 224 kb/s
    Channel(s) : 2 channels
    Channel positions : Front: L R
    Sampling rate : 48.0 kHz
    Frame rate : 31.250 FPS (1536 spf)
    Bit depth : 16 bits
    Compression mode : Lossy
    Stream size : 174 MiB (12%)
    Language : Russian
    Default : Yes
    Forced : Yes

    Скриншоты для ознакомления




    Все одноименные релизы в Клубе
    Время раздачи: 1200-2200 (до появления первых 3-5 скачавших)

    Королева Шантеклера/La reina del Chantecler (1962) WEB-DLRip [H.264]
    загрузка...
    Рейтинг →
     (голосов: 1, оценка 3/5, голосовать можно 1 раз )

    Другие торренты по теме:

  • Королева Шантеклера / La reina del Chantecler (1962) DVDRip [H.264] [Полная версия] скачать через торрент бесплатно
  • Королева Шантеклера / La reina del Chantecler (1962) HDTVRip [H.264 / 720p-LQ] скачать через торрент бесплатно


    • Комментарии (0):

      Информация

      Информация

        Посетители, находящиеся в группе Гости, не могут оставлять комментарии в данной новости.

        ↓ Меню




        ↓ Опрос

        Вы добавили сайт в закладки?
        Да
        Нет


        Top 10 за месяц (Фильмы)