.
Авторизация | Регистрация
Хочешь лучшие торренты? Добавь свой email!
Добавить

Торрент скачать бесплатно

» » Польские легенды: Яга / Legendy Polskie Jaga (2016) WEBRip [H.264 / 1080p-LQ] [VO] торрент скачать бесплатно




    Польские легенды: Яга / Legendy Polskie Jaga (2016) WEBRip [H.264 / 1080p-LQ] [VO] торрент скачать бесплатно

    Опубликовал: Админ | Дата: 10-09-2017, 11:46 | Просмотров: 0

    Производство: Польша | Allegro, Platige Image
    Жанр: Короткометражный, фэнтези, боевик, приключения
    Режиссер: Томек Багиньски
    Продюсер: Катажина Фукач-Цебула

    Актеры
    Пётр Махалица, Роберт Вечкевич, Катаржина Поспиеч, Томаш Драбек, Александра Палеолог

    Описание

    Директор польского ада по имени Боруто пытается навести порядок в своём отделе. Ему необходимо вернуть в ад ведьму по имени Яга, которая сбежала из тюрьмы и поселилась в тихой сельской местности. Он пытается объяснить, что ей не место в 21 веке: древние деревья, среди которых она раньше жила, были срублены ради строительства домов, люди не верят в Сатану и магию, а все что она может в современном мире — продавать грибы через интернет и публиковать курсы вязания крючком на YouTube.

    Дата мировой премьеры: 9 декабря 2016
    Продолжительность: 00: 12: 58
    Качество видео: WEBRip
    Перевод: Одноголосый закадровый (NewStation)
    Субтитры: Русские, английские, польские
    Реклама: Отсутствует
    Видео: AVC/H.264, 1920x1080 (16: 9), ~1836 kbps
    Аудио 1: AC3, 2 ch, 192 kbps - Русский
    Аудио 2: AAC, 2 ch, 126 kbps - Польский

    General
    Unique ID : 247671285989806330942598235571436129018 (0xBA53C12DCF8C1A1D95B13B1C81AC0AFA)
    Complete name : D: 1_ENGLISHPolskie legendiJagaLegendy Polskie_Jaga - NewStation.mkv
    Format : Matroska
    Format version : Version 4/Version 2
    File size : 200 MiB
    Duration : 12 min 58 s
    Overall bit rate : 2 157 kb/s
    Encoded date : UTC 2017-07-31 13: 00: 13
    Writing application : mkvmerge v13.0.0 (\'The Juggler\') 64bit
    Writing library : libebml v1.3.4 + libmatroska v1.4.5
    Video
    ID : 1
    Format : AVC
    Format/Info : Advanced Video Codec
    Format profile : High@L4
    Format settings, CABAC : Yes
    Format settings, ReFrames : 3 frames
    Codec ID : V_MPEG4/ISO/AVC
    Duration : 12 min 58 s
    Bit rate : 1 836 kb/s
    Width : 1 920 pixels
    Height : 1 080 pixels
    Display aspect ratio : 16: 9
    Frame rate mode : Constant
    Frame rate : 25.000 FPS
    Color space : YUV
    Chroma subsampling : 4: 2: 0
    Bit depth : 8 bits
    Scan type : Progressive
    Bits/(Pixel*Frame) : 0.035
    Stream size : 170 MiB (85%)
    Default : Yes
    Forced : No
    Color range : Limited
    Color primaries : BT.709
    Transfer characteristics : BT.709
    Matrix coefficients : BT.709
    Audio #1
    ID : 2
    Format : AC-3
    Format/Info : Audio Coding 3
    Format settings, Endianness : Big
    Codec ID : A_AC3
    Duration : 12 min 58 s
    Bit rate mode : Constant
    Bit rate : 192 kb/s
    Channel(s) : 2 channels
    Channel positions : Front: L R
    Sampling rate : 48.0 kHz
    Frame rate : 31.250 FPS (1536 spf)
    Bit depth : 16 bits
    Compression mode : Lossy
    Stream size : 17.8 MiB (9%)
    Title : Rus NewStation
    Service kind : Complete Main
    Default : Yes
    Forced : No
    Audio #2
    ID : 3
    Format : AAC
    Format/Info : Advanced Audio Codec
    Format profile : LC
    Codec ID : A_AAC
    Duration : 12 min 58 s
    Bit rate : 126 kb/s
    Channel(s) : 2 channels
    Channel positions : Front: L R
    Sampling rate : 44.1 kHz
    Frame rate : 43.066 FPS (1024 spf)
    Compression mode : Lossy
    Stream size : 11.7 MiB (6%)
    Default : No
    Forced : No
    Text #1
    ID : 4
    Format : UTF-8
    Codec ID : S_TEXT/UTF8
    Codec ID/Info : UTF-8 Plain Text
    Duration : 12 min 27 s
    Bit rate : 79 b/s
    Count of elements : 155
    Stream size : 7.23 KiB (0%)
    Title : Rus
    Default : Yes
    Forced : No
    Text #2
    ID : 5
    Format : UTF-8
    Codec ID : S_TEXT/UTF8
    Codec ID/Info : UTF-8 Plain Text
    Duration : 12 min 57 s
    Bit rate : 56 b/s
    Count of elements : 173
    Stream size : 5.37 KiB (0%)
    Title : Eng
    Default : No
    Forced : No
    Text #3
    ID : 6
    Format : UTF-8
    Codec ID : S_TEXT/UTF8
    Codec ID/Info : UTF-8 Plain Text
    Duration : 12 min 58 s
    Bit rate : 59 b/s
    Count of elements : 173
    Stream size : 5.63 KiB (0%)
    Title : Pol
    Default : No
    Forced : No

    Скриншоты для ознакомления



    Все одноименные релизы в Клубе
    Время раздачи: 24/7 (до появления первых 3-5 скачавших)

    Польские легенды: Яга/Legendy Polskie Jaga (2016) WEBRip [H.264/1080p-LQ] [VO]
    загрузка...
    Рейтинг →
     (голосов: 1, оценка 5/5, голосовать можно 1 раз )

    Другие торренты по теме:

  • Польские легенды: Твардовски / Legendy Polskie Twardowsky (2015) WEBRip [H.264 / 1080p-LQ] [VO]
  • Польские легенды: Твардовски 2.0 / Legendy Polskie Twardowsky 2.0 (2016) WEBRip [H.264 / 1080p-LQ] [VO]
  • Польские легенды: Операция «Василиск» / Legendy Polskie Operacja Bazyliszek (2016) WEBRip [H.264 / 1080p-LQ] [VO]
  • Польские легенды: Дракон / Legendy Polskie Smok (2015) WEBRip [H.264 / 1080p-LQ] [VO]
  • Польские легенды: Яга / Legendy Polskie Jaga (2016) WEBRip [H.264 / 1080p-LQ] [MVO]


    • Комментарии (0):

      Информация

      Информация

        Посетители, находящиеся в группе Гости, не могут оставлять комментарии в данной новости.

        ↓ Меню




        ↓ Опрос

        Вы добавили сайт в закладки?
        Да
        Нет


        Top 10 за месяц (Фильмы)