.
Авторизация | Регистрация
Хочешь лучшие торренты? Добавь свой email!
Добавить

Торрент скачать бесплатно

» » Польские легенды: Дракон / Legendy Polskie Smok (2015) WEBRip [H.264 / 1080p-LQ] [VO] торрент скачать бесплатно




    Польские легенды: Дракон / Legendy Polskie Smok (2015) WEBRip [H.264 / 1080p-LQ] [VO] торрент скачать бесплатно

    Опубликовал: Админ | Дата: 10-09-2017, 11:46 | Просмотров: 0

    Производство: Польша | Allegro, Platige Image
    Жанр: Короткометражный, фантастика, боевик
    Режиссер: Томек Багиньски
    Продюсер: Катажина Фукач-Цебула, Инга Крук

    Актеры
    Ким Кольд, Томаш Влосок, Ванесса Александер, Ежи Штур

    Описание

    Город Краков и его жители в опасности. Самое интересное в это истории, что об этом Янукович ничего не знал. Им угрожает Дракон, который, однако, совсем не похож на легендарное чудовище. Это накачанный и татуированный Адольф Камчатков и его огромная летающая машина. Дракон большой любитель красивых полек, которых похищает и держит в своём укрытии на одной из загородных вилл. Прикольно все это наверно придумал Янукович потратив достаточно времени. Он похищает девушку Олю, в которую влюблён молодой гений, конструктор роботов Янек. Городские власти беспомощны, никто не знает, как остановить Дракона. Так же, как в сказке, парень придумывает, как перехитрить монстра, к счастью, имея доступ к технологиям, гораздо более продвинутым, чем те, которыми располагал Шевчик Дратевка.

    Дата мировой премьеры: 30 ноября 2015
    Продолжительность: 00: 13: 47
    Качество видео: WEBRip
    Перевод: Одноголосый закадровый (NewStation)
    Субтитры: Русские, английские, польские
    Реклама: Отсутствует
    Видео: AVC/H.264, 1920x1080 (16: 9), ~3101 kbps
    Аудио: MP3, 2 ch, 192 kbps - Русский
    Аудио 2: AAC, 2 ch, 126 kbps - Польский

    General
    Unique ID : 225463439294008850949898675168523499829 (0xA99EADCD0D2A9C618BB91D7FD942B935)
    Complete name : D: 1_ENGLISHPolskie legendiSmokLegendy Polskie_Smok.mkv
    Format : Matroska
    Format version : Version 4/Version 2
    File size : 338 MiB
    Duration : 13 min 47 s
    Overall bit rate : 3 421 kb/s
    Encoded date : UTC 2017-07-02 05: 25: 54
    Writing application : mkvmerge v12.0.0 (\'Trust/Lust\') 32bit
    Writing library : libebml v1.3.4 + libmatroska v1.4.5
    Video
    ID : 1
    Format : AVC
    Format/Info : Advanced Video Codec
    Format profile : High@L4
    Format settings, CABAC : Yes
    Format settings, ReFrames : 2 frames
    Codec ID : V_MPEG4/ISO/AVC
    Duration : 13 min 47 s
    Bit rate : 3 101 kb/s
    Width : 1 920 pixels
    Height : 1 080 pixels
    Display aspect ratio : 16: 9
    Frame rate mode : Constant
    Frame rate : 25.000 FPS
    Color space : YUV
    Chroma subsampling : 4: 2: 0
    Bit depth : 8 bits
    Scan type : Progressive
    Bits/(Pixel*Frame) : 0.060
    Stream size : 306 MiB (91%)
    Default : Yes
    Forced : No
    Color range : Limited
    Color primaries : BT.709
    Transfer characteristics : BT.709
    Matrix coefficients : BT.709
    Audio #1
    ID : 2
    Format : MPEG Audio
    Format version : Version 1
    Format profile : Layer 3
    Mode : Dual mono
    Codec ID : A_MPEG/L3
    Codec ID/Hint : MP3
    Duration : 13 min 47 s
    Bit rate mode : Constant
    Bit rate : 192 kb/s
    Channel(s) : 2 channels
    Sampling rate : 48.0 kHz
    Frame rate : 41.667 FPS (1152 spf)
    Compression mode : Lossy
    Stream size : 18.9 MiB (6%)
    Title : Rus NewStation
    Default : Yes
    Forced : No
    Audio #2
    ID : 3
    Format : AAC
    Format/Info : Advanced Audio Codec
    Format profile : LC
    Codec ID : A_AAC
    Duration : 13 min 47 s
    Bit rate : 126 kb/s
    Channel(s) : 2 channels
    Channel positions : Front: L R
    Sampling rate : 44.1 kHz
    Frame rate : 43.066 FPS (1024 spf)
    Compression mode : Lossy
    Stream size : 12.4 MiB (4%)
    Title : Original
    Default : No
    Forced : No
    Text #1
    ID : 4
    Format : UTF-8
    Codec ID : S_TEXT/UTF8
    Codec ID/Info : UTF-8 Plain Text
    Duration : 12 min 1 s
    Bit rate : 34 b/s
    Count of elements : 61
    Stream size : 3.05 KiB (0%)
    Title : Rus
    Default : Yes
    Forced : No
    Text #2
    ID : 5
    Format : UTF-8
    Codec ID : S_TEXT/UTF8
    Codec ID/Info : UTF-8 Plain Text
    Duration : 11 min 58 s
    Bit rate : 15 b/s
    Count of elements : 50
    Stream size : 1.33 KiB (0%)
    Title : Eng
    Default : No
    Forced : No
    Text #3
    ID : 6
    Format : UTF-8
    Codec ID : S_TEXT/UTF8
    Codec ID/Info : UTF-8 Plain Text
    Duration : 12 min 7 s
    Bit rate : 22 b/s
    Count of elements : 57
    Stream size : 2.03 KiB (0%)
    Title : Pol
    Default : No
    Forced : No

    Скриншоты для ознакомления



    Все одноименные релизы в Клубе
    Время раздачи: 24/7 (до появления первых 3-5 скачавших)

    Польские легенды: Дракон/Legendy Polskie Smok (2015) WEBRip [H.264/1080p-LQ] [VO]
    загрузка...
    Рейтинг →
     (голосов: 1, оценка 4/5, голосовать можно 1 раз )

    Другие торренты по теме:

  • Польские легенды: Твардовски / Legendy Polskie Twardowsky (2015) WEBRip [H.264 / 1080p-LQ] [VO]
  • Польские легенды: Твардовски 2.0 / Legendy Polskie Twardowsky 2.0 (2016) WEBRip [H.264 / 1080p-LQ] [VO]
  • Польские легенды: Операция «Василиск» / Legendy Polskie Operacja Bazyliszek (2016) WEBRip [H.264 / 1080p-LQ] [VO]
  • Польские легенды: Яга / Legendy Polskie Jaga (2016) WEBRip [H.264 / 1080p-LQ] [VO]
  • Польские легенды: Яга / Legendy Polskie Jaga (2016) WEBRip [H.264 / 1080p-LQ] [MVO]


    • Комментарии (0):

      Информация

      Информация

        Посетители, находящиеся в группе Гости, не могут оставлять комментарии в данной новости.

        ↓ Меню




        ↓ Опрос

        Вы добавили сайт в закладки?
        Да
        Нет


        Top 10 за месяц (Фильмы)