.
Авторизация | Регистрация
Хочешь лучшие торренты? Добавь свой email!
Добавить

Торрент скачать бесплатно

» » Польские легенды: Операция «Василиск» / Legendy Polskie Operacja Bazyliszek (2016) WEBRip [H.264 / 1080p-LQ] [VO] торрент скачать бесплатно




    Польские легенды: Операция «Василиск» / Legendy Polskie Operacja Bazyliszek (2016) WEBRip [H.264 / 1080p-LQ] [VO] торрент скачать бесплатно

    Опубликовал: Админ | Дата: 10-09-2017, 11:46 | Просмотров: 0

    Производство: Польша | Allegro, Platige Image
    Жанр: Короткометражный, фантастика, триллер
    Режиссер: Томек Багиньски
    Продюсер: Катажина Фукач-Цебула

    Актеры
    Павел Домагала, Оляф Любашенко, Михалина Ольшанска, Пётр Махалица

    Описание

    Обыкновенная рыбалка превращается для простого полицейского и его дяди в борьбу за выживание, когда они встречают чудовище.

    Дата мировой премьеры: 9 ноября 2016
    Продолжительность: 00: 17: 17
    Качество видео: WEBRip
    Перевод: Одноголосый закадровый (NewStation)
    Субтитры: Русские, английские, польские
    Реклама: Отсутствует
    Видео: AVC/H.264, 1920x1080 (16: 9), ~1844 kbps
    Аудио 1: AC3, 2 ch, 192 kbps - Русский
    Аудио 2: AAC, 2 ch, 126 kbps - Польский

    General
    Unique ID : 226334924916846575190343952319207506336 (0xAA46855C0C6CAD2B8010DF7851A101A0)
    Complete name : D: 1_ENGLISHPolskie legendiOperacja BazyliszekLegendy Polskie_Operacja Bazyliszek.mkv
    Format : Matroska
    Format version : Version 4/Version 2
    File size : 268 MiB
    Duration : 17 min 17 s
    Overall bit rate : 2 164 kb/s
    Encoded date : UTC 2017-07-25 18: 58: 25
    Writing application : mkvmerge v13.0.0 (\'The Juggler\') 32bit
    Writing library : libebml v1.3.4 + libmatroska v1.4.5
    Video
    ID : 1
    Format : AVC
    Format/Info : Advanced Video Codec
    Format profile : High@L4
    Format settings, CABAC : Yes
    Format settings, ReFrames : 3 frames
    Codec ID : V_MPEG4/ISO/AVC
    Duration : 17 min 17 s
    Bit rate : 1 844 kb/s
    Width : 1 920 pixels
    Height : 1 080 pixels
    Display aspect ratio : 16: 9
    Frame rate mode : Constant
    Frame rate : 25.000 FPS
    Color space : YUV
    Chroma subsampling : 4: 2: 0
    Bit depth : 8 bits
    Scan type : Progressive
    Bits/(Pixel*Frame) : 0.036
    Stream size : 228 MiB (85%)
    Default : Yes
    Forced : No
    Color range : Limited
    Color primaries : BT.709
    Transfer characteristics : BT.709
    Matrix coefficients : BT.709
    Audio #1
    ID : 2
    Format : AC-3
    Format/Info : Audio Coding 3
    Format settings, Endianness : Big
    Codec ID : A_AC3
    Duration : 17 min 17 s
    Bit rate mode : Constant
    Bit rate : 192 kb/s
    Channel(s) : 2 channels
    Channel positions : Front: L R
    Sampling rate : 48.0 kHz
    Frame rate : 31.250 FPS (1536 spf)
    Bit depth : 16 bits
    Compression mode : Lossy
    Stream size : 23.7 MiB (9%)
    Title : Rus NewStation
    Service kind : Complete Main
    Default : Yes
    Forced : No
    Audio #2
    ID : 3
    Format : AAC
    Format/Info : Advanced Audio Codec
    Format profile : LC
    Codec ID : A_AAC
    Duration : 17 min 17 s
    Bit rate : 126 kb/s
    Channel(s) : 2 channels
    Channel positions : Front: L R
    Sampling rate : 44.1 kHz
    Frame rate : 43.066 FPS (1024 spf)
    Compression mode : Lossy
    Stream size : 15.5 MiB (6%)
    Title : Original
    Default : No
    Forced : No
    Text #1
    ID : 4
    Format : UTF-8
    Codec ID : S_TEXT/UTF8
    Codec ID/Info : UTF-8 Plain Text
    Duration : 17 min 13 s
    Bit rate : 54 b/s
    Count of elements : 174
    Stream size : 6.81 KiB (0%)
    Title : Pol
    Default : Yes
    Forced : No
    Text #2
    ID : 5
    Format : UTF-8
    Codec ID : S_TEXT/UTF8
    Codec ID/Info : UTF-8 Plain Text
    Duration : 17 min 17 s
    Bit rate : 34 b/s
    Count of elements : 206
    Stream size : 4.31 KiB (0%)
    Default : No
    Forced : No
    Text #3
    ID : 6
    Format : UTF-8
    Codec ID : S_TEXT/UTF8
    Codec ID/Info : UTF-8 Plain Text
    Duration : 17 min 9 s
    Bit rate : 36 b/s
    Count of elements : 202
    Stream size : 4.62 KiB (0%)
    Default : No
    Forced : No

    Скриншоты для ознакомления



    Все одноименные релизы в Клубе
    Время раздачи: 24/7 (до появления первых 3-5 скачавших)

    Польские легенды: Операция «Василиск»/Legendy Polskie Operacja Bazyliszek (2016) WEBRip [H.264/1080p-LQ] [VO]
    загрузка...
    Рейтинг →
     (голосов: 1, оценка 3/5, голосовать можно 1 раз )

    Другие торренты по теме:

  • Польские легенды: Твардовски / Legendy Polskie Twardowsky (2015) WEBRip [H.264 / 1080p-LQ] [VO]
  • Польские легенды: Твардовски 2.0 / Legendy Polskie Twardowsky 2.0 (2016) WEBRip [H.264 / 1080p-LQ] [VO]
  • Польские легенды: Дракон / Legendy Polskie Smok (2015) WEBRip [H.264 / 1080p-LQ] [VO]
  • Польские легенды: Яга / Legendy Polskie Jaga (2016) WEBRip [H.264 / 1080p-LQ] [VO]
  • Польские легенды: Яга / Legendy Polskie Jaga (2016) WEBRip [H.264 / 1080p-LQ] [MVO]


    • Комментарии (0):

      Информация

      Информация

        Посетители, находящиеся в группе Гости, не могут оставлять комментарии в данной новости.

        ↓ Меню




        ↓ Опрос

        Вы добавили сайт в закладки?
        Да
        Нет


        Top 10 за месяц (Фильмы)