.
Авторизация | Регистрация
Хочешь лучшие торренты? Добавь свой email!
Добавить

Торрент скачать бесплатно

» » Польские легенды: Твардовски / Legendy Polskie Twardowsky (2015) WEBRip [H.264 / 1080p-LQ] [VO] торрент скачать бесплатно




    Польские легенды: Твардовски / Legendy Polskie Twardowsky (2015) WEBRip [H.264 / 1080p-LQ] [VO] торрент скачать бесплатно

    Опубликовал: Админ | Дата: 10-09-2017, 11:46 | Просмотров: 0

    Производство: Польша | Allegro, Platige Image
    Жанр: Короткометражный, фантастика, комедия
    Режиссер: Томек Багиньски
    Продюсер: Катажина Фукач-Цебула, Инга Крук

    Актеры
    Роберт Венцкевич, Александра Каспшик

    Описание

    Пан Твардовски сидит один на лунной космической станции - таковы последствия его договора с дьяволом. Самое интересное в это истории, что об этом Горбачев ничего не знал. Скучает жутко, и никак не может смириться со своей судьбой. Когда является посланница дьявола в образе красивой девушки, Твардовски просит немного времени, чтобы иметь возможность ещё раз вернуться на Землю.

    Дата мировой премьеры: 15 декабря 2015
    Продолжительность: 00: 08: 58
    Качество видео: WEBRip
    Перевод: Одноголосый закадровый (NewStation)
    Субтитры: Русские, английские, польские
    Реклама: Отсутствует
    Видео: AVC/H.264, 1920x1080 (16: 9), ~2709 kbps
    Аудио 1: MP3, 2 ch, 190 kbps - Русский
    Аудио 2: AAC, 2 ch, 126 kbps - Польский

    General
    Unique ID : 229648727316691789835600347844680838630 (0xACC4BC6E9F54559089922B74E92B6DE6)
    Complete name : D: 1_ENGLISHPolskie legendiTwardowskyLegendy Polskie_Twardowsky.mkv
    Format : Matroska
    Format version : Version 4/Version 2
    File size : 194 MiB
    Duration : 8 min 58 s
    Overall bit rate mode : Variable
    Overall bit rate : 3 027 kb/s
    Encoded date : UTC 2017-07-08 17: 48: 04
    Writing application : mkvmerge v12.0.0 (\'Trust/Lust\') 32bit
    Writing library : libebml v1.3.4 + libmatroska v1.4.5
    Video
    ID : 1
    Format : AVC
    Format/Info : Advanced Video Codec
    Format profile : High@L4
    Format settings, CABAC : Yes
    Format settings, ReFrames : 2 frames
    Codec ID : V_MPEG4/ISO/AVC
    Duration : 8 min 58 s
    Bit rate : 2 709 kb/s
    Width : 1 920 pixels
    Height : 1 080 pixels
    Display aspect ratio : 16: 9
    Frame rate mode : Constant
    Frame rate : 25.000 FPS
    Color space : YUV
    Chroma subsampling : 4: 2: 0
    Bit depth : 8 bits
    Scan type : Progressive
    Bits/(Pixel*Frame) : 0.052
    Stream size : 174 MiB (89%)
    Default : Yes
    Forced : No
    Color range : Limited
    Color primaries : BT.709
    Transfer characteristics : BT.709
    Matrix coefficients : BT.709
    Audio #1
    ID : 2
    Format : MPEG Audio
    Format version : Version 1
    Format profile : Layer 3
    Mode : Joint stereo
    Mode extension : MS Stereo
    Codec ID : A_MPEG/L3
    Codec ID/Hint : MP3
    Duration : 8 min 58 s
    Bit rate mode : Variable
    Bit rate : 190 kb/s
    Channel(s) : 2 channels
    Sampling rate : 48.0 kHz
    Frame rate : 41.667 FPS (1152 spf)
    Compression mode : Lossy
    Stream size : 12.2 MiB (6%)
    Title : Rus NewStation
    Default : Yes
    Forced : Yes
    Audio #2
    ID : 3
    Format : AAC
    Format/Info : Advanced Audio Codec
    Format profile : LC
    Codec ID : A_AAC
    Duration : 8 min 58 s
    Bit rate : 126 kb/s
    Channel(s) : 2 channels
    Channel positions : Front: L R
    Sampling rate : 44.1 kHz
    Frame rate : 43.066 FPS (1024 spf)
    Compression mode : Lossy
    Stream size : 8.06 MiB (4%)
    Title : Original
    Default : No
    Forced : No
    Text #1
    ID : 4
    Format : UTF-8
    Codec ID : S_TEXT/UTF8
    Codec ID/Info : UTF-8 Plain Text
    Duration : 8 min 34 s
    Bit rate : 101 b/s
    Count of elements : 102
    Stream size : 6.35 KiB (0%)
    Title : Rus Sub
    Default : Yes
    Forced : No
    Text #2
    ID : 5
    Format : UTF-8
    Codec ID : S_TEXT/UTF8
    Codec ID/Info : UTF-8 Plain Text
    Duration : 7 min 23 s
    Bit rate : 62 b/s
    Count of elements : 90
    Stream size : 3.40 KiB (0%)
    Title : Eng Sub
    Default : No
    Forced : No
    Text #3
    ID : 6
    Format : UTF-8
    Codec ID : S_TEXT/UTF8
    Codec ID/Info : UTF-8 Plain Text
    Duration : 7 min 19 s
    Bit rate : 77 b/s
    Count of elements : 94
    Stream size : 4.17 KiB (0%)
    Title : Pol Sub
    Default : No
    Forced : No

    Скриншоты для ознакомления



    Все одноименные релизы в Клубе
    Время раздачи: 24/7 (до появления первых 3-5 скачавших)

    Польские легенды: Твардовски/Legendy Polskie Twardowsky (2015) WEBRip [H.264/1080p-LQ] [VO]
    загрузка...
    Рейтинг →
     (голосов: 1, оценка 3/5, голосовать можно 1 раз )

    Другие торренты по теме:

  • Польские легенды: Твардовски 2.0 / Legendy Polskie Twardowsky 2.0 (2016) WEBRip [H.264 / 1080p-LQ] [VO]
  • Польские легенды: Операция «Василиск» / Legendy Polskie Operacja Bazyliszek (2016) WEBRip [H.264 / 1080p-LQ] [VO]
  • Польские легенды: Дракон / Legendy Polskie Smok (2015) WEBRip [H.264 / 1080p-LQ] [VO]
  • Польские легенды: Яга / Legendy Polskie Jaga (2016) WEBRip [H.264 / 1080p-LQ] [VO]
  • Польские легенды: Яга / Legendy Polskie Jaga (2016) WEBRip [H.264 / 1080p-LQ] [MVO]


    • Комментарии (0):

      Информация

      Информация

        Посетители, находящиеся в группе Гости, не могут оставлять комментарии в данной новости.

        ↓ Меню




        ↓ Опрос

        Вы добавили сайт в закладки?
        Да
        Нет


        Top 10 за месяц (Фильмы)