.
Авторизация | Регистрация
Хочешь лучшие торренты? Добавь свой email!
Добавить

Торрент скачать бесплатно

» » Париж подождет / Paris Can Wait (2016) WEB-DL [H.264 / 1080p-LQ] [EN / EN Sub] торрент скачать бесплатно




    Париж подождет / Paris Can Wait (2016) WEB-DL [H.264 / 1080p-LQ] [EN / EN Sub] торрент скачать бесплатно

    Опубликовал: Админ | Дата: 10-09-2017, 11:46 | Просмотров: 0

    Производство: США, Lifetime Films, American Zoetrope, Corner Piece Capital
    Жанр: Комедия, Драма, Мелодрама
    Режиссер: Элинор Коппола
    Продюсер: Элинор Коппола, Фред Рус, Майкл Закин

    Актеры
    Дайан Лэйн, Алек Болдуин, Арно Виард, Линда Гегуш, Элоди Наварр, Элиз Тиельрууа, Седрик Монне

    Описание

    Главная героиня фильма, уже не молодая женщина Анна, замужем за успешным кинопродюсером. Муж постоянно работает и почти не бывает дома, героиня чувствует себя одинокой и от того несчастной. Когда супруг уезжает в очередную командировку, героиня отправляется на автомобиле из Канн в Париж. Сопровождает ее деловой партнер мужа, который окажется искусным обольстителем. Два коротких дня вместят увлекательное путешествие, которое напомнит Анне о том, что жизнь прекрасна.

    Возраст: 16+ (зрителям, достигшим 16 лет)
    Рейтинг MPAA: PG (рекомендуется присутствие родителей)
    Премьера (мир): 12 сентября 2016, ...
    Премьера (РФ): 18 мая 2017, Парадиз

    Продолжительность: 01: 32: 25
    Качество видео: WEB-DL 1080p
    Перевод: Отсутствует
    Язык озвучки: Английский
    Субтитры: Английские
    Видео: AVC, 1920x1032 (1.860), 23.976 fps, 5 076 Kbps (0.107 bit/pixel)
    Аудио: AC-3, 48.0 KHz, 6 ch, 384 Kbps, CBR (English)
    General
    Complete name : Paris.Can.Wait.2016.1080p.WEB-DL.DD5.1.H264.mkv
    Format : Matroska
    Format version : Version 4/Version 2
    File size : 3.60 GiB
    Duration : 1 h 32 min
    Overall bit rate : 5 571 kb/s
    Encoded date : UTC 2017-09-08 07: 59: 05
    Writing application : mkvmerge v15.0.0 (\'Duel with the Devil\') 64-bit
    Writing library : libebml v1.3.5 + libmatroska v1.4.5
    Video
    ID : 1
    Format : AVC
    Format/Info : Advanced Video Codec
    Format profile : High@L4
    Format settings, CABAC : Yes
    Format settings, RefFrames : 4 frames
    Format settings, GOP : M=1, N=2
    Codec ID : V_MPEG4/ISO/AVC
    Duration : 1 h 32 min
    Bit rate : 5 076 kb/s
    Width : 1 920 pixels
    Height : 1 032 pixels
    Display aspect ratio : 1.85: 1
    Frame rate mode : Constant
    Frame rate : 23.976 (24000/1001) FPS
    Color space : YUV
    Chroma subsampling : 4: 2: 0
    Bit depth : 8 bits
    Scan type : Progressive
    Bits/(Pixel*Frame) : 0.107
    Stream size : 3.28 GiB (91%)
    Language : English
    Default : Yes
    Forced : No
    Color range : Limited
    Color primaries : BT.709
    Transfer characteristics : BT.709
    Matrix coefficients : BT.709
    Audio
    ID : 2
    Format : AC-3
    Format/Info : Audio Coding 3
    Format settings, Endianness : Big
    Codec ID : A_AC3
    Duration : 1 h 32 min
    Bit rate mode : Constant
    Bit rate : 384 kb/s
    Channel(s) : 6 channels
    Channel positions : Front: L C R, Side: L R, LFE
    Sampling rate : 48.0 kHz
    Frame rate : 31.250 FPS (1536 SPF)
    Bit depth : 16 bits
    Compression mode : Lossy
    Delay relative to video : -42 ms
    Stream size : 254 MiB (7%)
    Language : English
    Service kind : Complete Main
    Default : Yes
    Forced : No
    Text
    ID : 3
    Format : UTF-8
    Codec ID : S_TEXT/UTF8
    Codec ID/Info : UTF-8 Plain Text
    Language : English
    Default : Yes
    Forced : No
    Menu
    00: 00: 00.000 : en: 1
    00: 05: 23.073 : en: 2
    00: 09: 55.595 : en: 3
    00: 14: 59.982 : en: 4
    00: 19: 53.275 : en: 5
    00: 27: 44.913 : en: 6
    00: 35: 31.921 : en: 7
    00: 41: 59.934 : en: 8
    00: 48: 21.273 : en: 9
    00: 53: 27.287 : en: 10
    00: 59: 17.136 : en: 11
    01: 04: 53.305 : en: 12
    01: 10: 16.503 : en: 13
    01: 17: 30.478 : en: 14
    01: 22: 42.832 : en: 15
    01: 27: 48.929 : en: 16

    Скриншоты для ознакомления




    Все одноименные релизы в Клубе
    Время раздачи: 24/7 (круглосуточно) (до появления первых 3-5 скачавших)

    Париж подождет/Paris Can Wait (2016) WEB-DL [H.264/1080p-LQ] [EN/EN Sub]
    загрузка...
    Рейтинг →
     (голосов: 1, оценка 4/5, голосовать можно 1 раз )

    Другие торренты по теме:

  • Париж подождет / Paris Can Wait (2017) WEB-DL [720p] ATV
  • Париж подождет / Paris Can Wait (2017) WEB-DLRip [H.264] [MP4|640x460@852x460]
  • Париж подождет / Paris Can Wait (2017) WEB-DL [H.264 / 720p-LQ]
  • Париж подождет / Paris Can Wait (2017) WEB-DLRip


    • Комментарии (0):

      Информация

      Информация

        Посетители, находящиеся в группе Гости, не могут оставлять комментарии в данной новости.

        ↓ Меню




        ↓ Опрос

        Вы добавили сайт в закладки?
        Да
        Нет


        Top 10 за месяц (Фильмы)