.
Авторизация | Регистрация
Хочешь лучшие торренты? Добавь свой email!
Добавить

Торрент скачать бесплатно

» » Игра Эндера / Enders Game (2013) BDRip [H.264 / 1080p-LQ] торрент скачать бесплатно




    Игра Эндера / Enders Game (2013) BDRip [H.264 / 1080p-LQ] торрент скачать бесплатно

    Опубликовал: Админ | Дата: 10-09-2017, 11:46 | Просмотров: 0

    Производство: США/Summit Entertainment
    Жанр: фантастика, боевик
    Режиссер: Гэвин Худ
    Продюсер: Орсон Скотт Кард, Роберт Чартофф, Линн Хенди

    Актеры
    Эйса Баттерфилд, Харрисон Форд, Бен Кингсли, Виола Дэвис, Хейли Стайнфелд, Эбигейл Бреслин, Арамис Найт, Сурадж Партха, Мойзес Ариас, Кайлин Рамбо

    Описание

    Действие происходит в 2135 году. Человечество пережило два вторжения инопланетной расы жукеров, лишь чудом уцелев, и готовится к очередному вторжению.
    Для поиска пилотов и военачальников, способных принести Земле победу, создаётся военная школа, в которую отправляют самых талантливых детей. Среди этих детей Эндрю (Эндер) Виггин, будущий полководец Международного флота Земли и единственная надежда человечества на спасение.

    Возраст: 12+ (зрителям, достигшим 12 лет)
    Рейтинг MPAA: PG-13 (детям до 13 лет просмотр нежелателен)

    Релиз от: Bullit, Magnetto83
    Продолжительность: 01: 53: 48
    Качество: BDRip 1080p-LQ
    Перевод: Дублированный (Лицензия R5)
    Субтитры: Русские (Полные), английские (full, SDH, SDH Colored)
    Видео: H.264/AVC, 1920x800, (2.40: 1), 5 115 kbps, 23.976 fps
    Аудио: AC3, 6 ch, 384 kbps - Русский
    General
    Unique ID : 190129755291164337460698275070512445030 (0x8F09A8ADE51E9243B8DC770091B7B666)
    Complete name : Игра Эндера 2013 Dub Rus BDRip 1080p.mkv
    Format : Matroska
    Format version : Version 4/Version 2
    File size : 4.37 GiB
    Duration : 1 h 53 min
    Overall bit rate : 5 499 kb/s
    Movie name : Игра Эндера 2013 Dub Rus BDRip 1080p By R.G. GoldenShara
    Encoded date : UTC 2017-08-17 21: 45: 27
    Writing application : mkvmerge v7.0.0 (\'Where We Going\') 64bit built on Jun 9 2014 15: 16: 27
    Writing library : libebml v1.3.0 + libmatroska v1.4.1
    Video
    ID : 1
    Format : AVC
    Format/Info : Advanced Video Codec
    Format profile : High@L4.1
    Format settings, CABAC : Yes
    Format settings, ReFrames : 5 frames
    Codec ID : V_MPEG4/ISO/AVC
    Duration : 1 h 53 min
    Bit rate : 5 115 kb/s
    Width : 1 920 pixels
    Height : 800 pixels
    Display aspect ratio : 2.40: 1
    Frame rate mode : Constant
    Frame rate : 23.976 (24000/1001) FPS
    Color space : YUV
    Chroma subsampling : 4: 2: 0
    Bit depth : 8 bits
    Scan type : Progressive
    Bits/(Pixel*Frame) : 0.139
    Stream size : 4.06 GiB (93%)
    Title : Игра Эндера 2013 BDRip 1080p By Bullit
    Writing library : x264 core 142 r2431 ac76440
    Encoding settings : cabac=1/ref=5/deblock=1: -3: -3/analyse=0x3: 0x133/me=umh/subme=11/psy=1/psy_rd=1.00: 0.00/mixed_ref=1/me_range=32/chroma_me=1/trellis=2/8x8dct=1/cqm=0/deadzone=21, 11/fast_pskip=0/chroma_qp_offset=-4/threads=12/lookahead_threads=2/sliced_threads=0/nr=0/decimate=0/interlaced=0/bluray_compat=0/constrained_intra=0/bframes=8/b_pyramid=2/b_adapt=2/b_bias=0/direct=3/weightb=1/open_gop=0/weightp=2/keyint=230/keyint_min=22/scenecut=40/intra_refresh=0/rc_lookahead=40/rc=2pass/mbtree=1/bitrate=5115/ratetol=1.0/qcomp=0.60/qpmin=0/qpmax=69/qpstep=4/cplxblur=20.0/qblur=0.5/vbv_maxrate=62500/vbv_bufsize=78125/nal_hrd=none/filler=0/ip_ratio=1.40/aq=1: 1.00
    Language : English
    Default : Yes
    Forced : No
    Audio
    ID : 2
    Format : AC-3
    Format/Info : Audio Coding 3
    Format settings, Endianness : Big
    Codec ID : A_AC3
    Duration : 1 h 53 min
    Bit rate mode : Constant
    Bit rate : 384 kb/s
    Channel(s) : 6 channels
    Channel positions : Front: L C R, Side: L R, LFE
    Sampling rate : 48.0 kHz
    Frame rate : 31.250 FPS (1536 spf)
    Bit depth : 16 bits
    Compression mode : Lossy
    Stream size : 313 MiB (7%)
    Title : DD 5.1 @ 384 kbps - Dub | R5 TV 1000 Action |
    Language : Russian
    Service kind : Complete Main
    Default : Yes
    Forced : No
    Text #1
    ID : 3
    Format : UTF-8
    Codec ID : S_TEXT/UTF8
    Codec ID/Info : UTF-8 Plain Text
    Duration : 1 h 44 min
    Bit rate : 83 b/s
    Count of elements : 1286
    Stream size : 63.8 KiB (0%)
    Title : Полные
    Language : Russian
    Default : No
    Forced : No
    Text #2
    ID : 4
    Format : UTF-8
    Codec ID : S_TEXT/UTF8
    Codec ID/Info : UTF-8 Plain Text
    Duration : 1 h 44 min
    Bit rate : 55 b/s
    Count of elements : 1474
    Stream size : 42.5 KiB (0%)
    Title : Full
    Language : English
    Default : No
    Forced : No
    Text #3
    ID : 5
    Format : UTF-8
    Codec ID : S_TEXT/UTF8
    Codec ID/Info : UTF-8 Plain Text
    Duration : 1 h 44 min
    Bit rate : 60 b/s
    Count of elements : 1646
    Stream size : 46.5 KiB (0%)
    Title : SDH
    Language : English
    Default : No
    Forced : No
    Text #4
    ID : 6
    Format : UTF-8
    Codec ID : S_TEXT/UTF8
    Codec ID/Info : UTF-8 Plain Text
    Duration : 1 h 44 min
    Bit rate : 72 b/s
    Count of elements : 1646
    Stream size : 55.9 KiB (0%)
    Title : SDH-Colored
    Language : English
    Default : No
    Forced : No
    Menu
    00: 00: 00.000 : en: 00: 00: 00.000
    00: 06: 10.579 : en: 00: 06: 10.579
    00: 14: 18.566 : en: 00: 14: 18.566
    00: 19: 06.145 : en: 00: 19: 06.145
    00: 28: 07.144 : en: 00: 28: 07.144
    00: 33: 22.667 : en: 00: 33: 22.667
    00: 39: 34.664 : en: 00: 39: 34.664
    00: 45: 43.407 : en: 00: 45: 43.407
    00: 53: 37.714 : en: 00: 53: 37.714
    01: 02: 15.607 : en: 01: 02: 15.607
    01: 09: 21.949 : en: 01: 09: 21.949
    01: 15: 16.887 : en: 01: 15: 16.887
    01: 23: 38.305 : en: 01: 23: 38.305
    01: 30: 54.824 : en: 01: 30: 54.824
    01: 35: 43.279 : en: 01: 35: 43.279
    01: 41: 12.858 : en: 01: 41: 12.858
    YouTube

    Скриншоты для ознакомления


    Релизы фильма Игра Эндера/Ender\'s Game на NNM Club
    Время раздачи: с 9: 00 до 23: 00

    Игра Эндера/Enders Game (2013) BDRip [H.264/1080p-LQ]
    загрузка...
    Рейтинг →
     (голосов: 1, оценка 4/5, голосовать можно 1 раз )

    Другие торренты по теме:

  • Игра Эндера / Enders Game (2013) BDRip [720p] [hand made 48fps] скачать через торрент бесплатно
  • Игра Эндера / Enders Game (2013) BDRip [1080p] скачать через торрент бесплатно
  • Игра Эндера / Enders Game (2013) BDRemux [1080p] скачать через торрент бесплатно
  • Игра Эндера / Enders Game (2013) HDRip
  • Игра Эндера / Enders Game (2013) BDRip
  • Игра Эндера / Enders Game (2013) BDRemux [1080p]
  • Игра Эндера / Enders Game (2013) HDRip [AVO] скачать через торрент бесплатно
  • Орсон Скотт Кард | Игра Эндера (2017) [MP3]


    • Комментарии (0):

      Информация

      Информация

        Посетители, находящиеся в группе Гости, не могут оставлять комментарии в данной новости.

        ↓ Меню




        ↓ Опрос

        Вы добавили сайт в закладки?
        Да
        Нет


        Top 10 за месяц (Фильмы)