.
Авторизация | Регистрация
Хочешь лучшие торренты? Добавь свой email!
Добавить

Торрент скачать бесплатно

» » Порочная страсть / Arbitrage (2012) BDRip [H.265 / 1080p-LQ] торрент скачать бесплатно




    Порочная страсть / Arbitrage (2012) BDRip [H.265 / 1080p-LQ] торрент скачать бесплатно

    Опубликовал: Админ | Дата: 10-09-2017, 11:46 | Просмотров: 0

    Производство: США/Green Room Films, Treehouse Pictures, Alvernia Production
    Жанр: Триллер, Драма
    Режиссер: Николас Джареки
    Продюсер: Лаура Бикфорд, Джастин Наппи, Роберт Салерно

    Актеры
    Ричард Гир, Сьюзен Сарандон, Тим Рот, Летиция Каста, Брит Марлинг, Нэйт Паркер, Уильям Фридкин, Моника Реймунд, Джош Пэйс, Кристофер Айджмен

    Описание

    Роберт Миллер — харизматичный аферист и гениальный любовник. Он привык к тому, что в постелях его всегда ждут жена и любовница, которые, правда, попеременно закатывают ему скандалы, а огромные деньги делаются просто из воздуха. Но дутый бизнес не может держаться долго. Почуяв провал, он стремится поскорее продать свой хедж-фонд крупному банку, прежде чем раскроются его махинации. Непредвиденные события и нелепые ошибки толкают его на отчаянный шаг…

    Возраст: 16+ (зрителям, достигшим 16 лет)
    Рейтинг MPAA: R (лицам до 17 лет обязательно присутствие взрослого)
    Релиз от: Banda.Bassotti
    Продолжительность: 01: 47: 22
    Качество видео: BDRip
    Перевод: Дублированный
    Субтитры: русские, английские
    Видео: HEVC/H.265, 1920x1040, ~4780 Kbps
    Аудио 1: DTS, 6 ch, 755 Kbps (русский)
    Аудио 1: DTS, 6 ch, 1509 Kbps (английский)

    Общее
    Уникальный идентификатор : 228180651189076981196055653960444586025 (0xABA9FEB0D0A170A3BFA2B5418654A829)
    Полное имя : E: VideoПорочная страсть (Arbitrage).mkv
    Формат : Matroska
    Версия формата : Version 4/Version 2
    Размер файла : 5, 28 Гбайт
    Продолжительность : 1 ч. 47 м.
    Общий поток : 7040 Кбит/сек
    Название фильма : Порочная страсть/Arbitrage
    Дата кодирования : UTC 2017-09-05 04: 11: 25
    Программа кодирования : mkvmerge v12.0.0 (\'Trust/Lust\') 64bit
    Библиотека кодирования : libebml v1.3.4 + libmatroska v1.4.5
    Авторское право : Encoded by Banda.Bassotti
    Attachments : 3c25222c678e.jpg
    Released by : Buba5473 for NNM-Club
    Видео
    Идентификатор : 1
    Формат : HEVC
    Формат/Информация : High Efficiency Video Coding
    Профиль формата : Main@L4@Main
    Идентификатор кодека : V_MPEGH/ISO/HEVC
    Продолжительность : 1 ч. 47 м.
    Битрейт : 4780 Кбит/сек
    Ширина : 1920 пикселей
    Высота : 1040 пикселей
    Соотношение сторон : 1, 85: 1
    Режим частоты кадров : Постоянный
    Частота кадров : 23, 976 (23976/1000) кадра/сек
    Частота кадров в оригинале : 24, 000 кадра/сек
    Цветовое пространство : YUV
    Субдискретизация насыщенности : 4: 2: 0
    Битовая глубина : 8 бит
    Бит/(Пиксели*Кадры) : 0.100
    Размер потока : 3, 58 Гбайт (68%)
    Заголовок : La Frode (2012) - Banda.Bassotti
    Библиотека кодирования : x265 2.0: WindowsGCC 5.4.064 bit 8bit
    Настройки программы : wpp/ctu=64/min-cu-size=8/max-tu-size=32/tu-intra-depth=1/tu-inter-depth=1/me=1/subme=1/merange=57/no-rect/no-amp/max-merge=2/temporal-mvp/early-skip/rskip/rdpenalty=0/no-tskip/no-tskip-fast/strong-intra-smoothing/no-lossless/no-cu-lossless/no-constrained-intra/fast-intra/open-gop/no-temporal-layers/interlace=0/keyint=240/min-keyint=24/scenecut=40/rc-lookahead=15/lookahead-slices=6/bframes=4/bframe-bias=0/b-adapt=0/ref=2/limit-refs=3/no-limit-modes/weightp/no-weightb/aq-mode=1/qg-size=32/aq-strength=1.00/cbqpoffs=0/crqpoffs=0/rd=2/psy-rd=2.00/rdoq-level=0/psy-rdoq=0.00/no-rd-refine/signhide/deblock=0: 0/sao/no-sao-non-deblock/b-pyramid/cutree/no-intra-refresh/rc=crf/crf=18.0/qcomp=0.60/qpmin=0/qpmax=51/qpstep=4/ipratio=1.40/pbratio=1.30
    Язык : English
    Default : Да
    Forced : Нет
    Цветовой диапазон : Limited
    Основные цвета : BT.709
    Характеристики трансфера : BT.709
    Коэффициенты матрицы : BT.709
    Аудио #1
    Идентификатор : 2
    Формат : DTS
    Формат/Информация : Digital Theater Systems
    Режим : 16
    Параметр Endianness формата : Big
    Идентификатор кодека : A_DTS
    Продолжительность : 1 ч. 47 м.
    Вид битрейта : Постоянный
    Битрейт : 755 Кбит/сек
    Каналы : 6 каналов
    Расположение каналов : Front: L C R, Side: L R, LFE
    Частота : 48, 0 КГц
    Частота кадров : 93, 750 кадра/сек (512 spf)
    Битовая глубина : 24 бит
    Метод сжатия : С потерями
    Задержка видео : 5 мс.
    Размер потока : 578 Мбайт (11%)
    Заголовок : Перевод: Дублированный Лицензия
    Язык : Russian
    Default : Да
    Forced : Да
    Аудио #2
    Идентификатор : 3
    Формат : DTS
    Формат/Информация : Digital Theater Systems
    Режим : 16
    Параметр Endianness формата : Big
    Идентификатор кодека : A_DTS
    Продолжительность : 1 ч. 47 м.
    Вид битрейта : Постоянный
    Битрейт : 1509 Кбит/сек
    Каналы : 6 каналов
    Расположение каналов : Front: L C R, Side: L R, LFE
    Частота : 48, 0 КГц
    Частота кадров : 93, 750 кадра/сек (512 spf)
    Битовая глубина : 24 бит
    Метод сжатия : С потерями
    Задержка видео : 5 мс.
    Размер потока : 1, 13 Гбайт (21%)
    Заголовок : DTS 5.1 @ 1536 kbps
    Язык : English
    Default : Нет
    Forced : Нет
    Текст #1
    Идентификатор : 4
    Формат : UTF-8
    Идентификатор кодека : S_TEXT/UTF8
    Идентификатор кодека/Информация : UTF-8 Plain Text
    Продолжительность : 1 ч. 39 м.
    Битрейт : 120 бит/сек
    ElementCount : 1468
    Размер потока : 87, 7 Кбайт (0%)
    Язык : Russian
    Default : Да
    Forced : Нет
    Текст #2
    Идентификатор : 5
    Формат : UTF-8
    Идентификатор кодека : S_TEXT/UTF8
    Идентификатор кодека/Информация : UTF-8 Plain Text
    Продолжительность : 1 ч. 38 м.
    Битрейт : 74 бит/сек
    ElementCount : 1660
    Размер потока : 53, 8 Кбайт (0%)
    Язык : English
    Default : Нет
    Forced : Нет
    Меню
    00: 00: 00.000 : en: 00: 00: 00.000
    00: 06: 24.551 : en: 00: 06: 24.551
    00: 13: 58.671 : en: 00: 13: 58.671
    00: 20: 41.991 : en: 00: 20: 41.991
    00: 27: 21.974 : en: 00: 27: 21.974
    00: 35: 00.473 : en: 00: 35: 00.473
    00: 40: 28.926 : en: 00: 40: 28.926
    00: 47: 20.379 : en: 00: 47: 20.379
    00: 54: 28.891 : en: 00: 54: 28.891
    00: 57: 56.264 : en: 00: 57: 56.264
    01: 06: 57.680 : en: 01: 06: 57.680
    01: 14: 24.502 : en: 01: 14: 24.502
    01: 19: 12.915 : en: 01: 19: 12.915
    01: 27: 47.637 : en: 01: 27: 47.637
    01: 37: 16.456 : en: 01: 37: 16.456
    01: 40: 32.944 : en: 01: 40: 32.944
    H.265/HEVC (High Efficiency Video Coding) - это новый стандарт кодирования видео.
    *Рипы в фомате HEVC, в настоящее время не поддерживается большинством аппаратных проигрывателей.
    *Для корректного воспроизведения может потребоваться обновление ПО.
    *Стандарт H.265/HEVC является логическим продолжением стандарта H.264/AVC (Advanced Video Coding), и характеризуется более эффективными алгоритмами сжатия, а также поддержкой высокого разрешения вплоть до 8K UHD (8192x4320). Первая версия стандарта H.265 была опубликована в начале 2013 года.
    Любителям решения из коробки - установить последнюю версию на выбор:
    Media Player Classic - Black Edition (MPC-BE)
    VLC media player
    Daum Pot Player
    GOM Media Player
    Любителям WMP и других плееров, использующих по умолчанию для воспроизведения системные кодеки+сплитеры - установить K-Lite Codec Pack версии 10.1.0 и выше.
    Любимые плееры, не использующии по умолчанию для воспроизведения системные кодеки+сплитеры, нужно перенастроить на испоьзование оных.

    Скриншоты для ознакомления



    Все одноименные релизы в Клубе
    Время раздачи: с 11: 00 до 21: 00 нск (до появления первых 3-5 скачавших)

    Порочная страсть/Arbitrage (2012) BDRip [H.265/1080p-LQ]
    загрузка...
    Рейтинг →
     (голосов: 1, оценка 4/5, голосовать можно 1 раз )

    Другие торренты по теме:

  • Темпеста: Порочная страсть / Tempesta (2004) DVDRip


    • Комментарии (0):

      Информация

      Информация

        Посетители, находящиеся в группе Гости, не могут оставлять комментарии в данной новости.

        ↓ Меню




        ↓ Опрос

        Вы добавили сайт в закладки?
        Да
        Нет


        Top 10 за месяц (Фильмы)