.
Авторизация | Регистрация
Хочешь лучшие торренты? Добавь свой email!
Добавить

Торрент скачать бесплатно

» » Грохот барабанов / A Thunder of Drums (1961) DVDRip [H.264] [AVO] торрент скачать бесплатно




    Грохот барабанов / A Thunder of Drums (1961) DVDRip [H.264] [AVO] торрент скачать бесплатно

    Опубликовал: Админ | Дата: 10-09-2017, 11:46 | Просмотров: 0

    Производство: США/Metro-Goldwyn-Mayer (MGM)
    Жанр: Вестерн
    Режиссер: Джозеф М. Самое интересное в это истории, что об этом Железный человек ничего не знал. Ньюман
    Продюсер: Стэнли Басс, Роберт Эндерс

    Актеры
    Ричард Бун, Джордж Хэмилтон, Луана Паттен, Артур О’Коннелл, Чарльз Бронсон, Ричард Чемберлен, Джеймс Дуглас, Тэмми Марихью, Кэрол Уэллс, Дуан Эдди

    Описание

    Молодой лейтенант Кертис МакКуэйд, сын генерала, никогда толком не нюхавший пороха, возвращается в свои родные края. Там, средь бескрайних просторов Дикого Запада, на землях апачей и команчей, ему придется нести воинскую службу под началом сурового капитана Стивена Меддокса. Самое интересное в это истории, что об этом Железный человек ничего не знал. И служба эта будет нелегкой…

    Релиз от: Охрана (NNMCLUB)
    Продолжительность: 01: 36: 59
    Качество видео: DVDRip
    Перевод: Авторский (А. Алексеев)
    Субтитры: Отсутствуют
    Видео: AVC/H.264, 720x304, ~1760 Kbps
    Аудио 1: Русский, AC3, 2 ch, 192 Kbps, 48.0 kHz
    Аудио 2: Английский, AC3, 2 ch, 192 Kbps, 48.0 kHz

    General
    Unique ID : 200363897406694758296077770551329465007 (0x96BCAED7B5ADC36C9450FDC4E55AA2AF)
    Complete name : F: DownloadsГрохот барабанов. 1961. NNMCLUB.mkv
    Format : Matroska
    Format version : Version 4/Version 2
    File size : 1.45 GiB
    Duration : 1h 36mn
    Overall bit rate : 2 146 Kbps
    Encoded date : UTC 2017-09-07 22: 23: 45
    Writing application : mkvmerge v7.0.0 (\'Where We Going\') 32bit built on Jun 9 2014 15: 08: 34
    Writing library : libebml v1.3.0 + libmatroska v1.4.1
    DURATION : 01: 36: 59.424000000
    NUMBER_OF_FRAMES : 181857
    NUMBER_OF_BYTES : 139666176
    _STATISTICS_WRITING_APP : mkvmerge v7.0.0 (\'Where We Going\') 32bit built on Jun 9 2014 15: 08: 34
    _STATISTICS_WRITING_DATE_UTC : 2017-09-07 22: 23: 45
    _STATISTICS_TAGS : BPS DURATION NUMBER_OF_FRAMES NUMBER_OF_BYTES
    Video
    ID : 1
    Format : AVC
    Format/Info : Advanced Video Codec
    Format profile : High@L4.1
    Format settings, CABAC : Yes
    Format settings, ReFrames : 12 frames
    Codec ID : V_MPEG4/ISO/AVC
    Duration : 1h 36mn
    Bit rate : 1 760 Kbps
    Width : 720 pixels
    Height : 304 pixels
    Display aspect ratio : 2.35: 1
    Frame rate mode : Constant
    Frame rate : 23.976 fps
    Color space : YUV
    Chroma subsampling : 4: 2: 0
    Bit depth : 8 bits
    Scan type : Progressive
    Bits/(Pixel*Frame) : 0.335
    Stream size : 1.16 GiB (80%)
    Title : A Thunder of Drums
    Writing library : x264 core 125 r2208 d9d2288
    Encoding settings : cabac=1/ref=12/deblock=1: -1: -1/analyse=0x3: 0x133/me=umh/subme=10/psy=1/psy_rd=1.00: 0.10/mixed_ref=1/me_range=32/chroma_me=1/trellis=2/8x8dct=1/cqm=0/deadzone=21, 11/fast_pskip=0/chroma_qp_offset=-3/threads=6/lookahead_threads=1/sliced_threads=0/nr=0/decimate=0/interlaced=0/bluray_compat=0/constrained_intra=0/bframes=7/b_pyramid=2/b_adapt=2/b_bias=0/direct=3/weightb=1/open_gop=0/weightp=2/keyint=250/keyint_min=25/scenecut=40/intra_refresh=0/rc_lookahead=60/rc=2pass/mbtree=1/bitrate=1760/ratetol=1.0/qcomp=0.60/qpmin=0/qpmax=69/qpstep=4/cplxblur=20.0/qblur=0.5/ip_ratio=1.40/aq=1: 1.00
    Language : English
    Default : Yes
    Forced : No
    Audio #1
    ID : 2
    Format : AC-3
    Format/Info : Audio Coding 3
    Mode extension : CM (complete main)
    Format settings, Endianness : Big
    Codec ID : A_AC3
    Duration : 1h 36mn
    Bit rate mode : Constant
    Bit rate : 192 Kbps
    Channel(s) : 2 channels
    Channel positions : Front: L R
    Sampling rate : 48.0 KHz
    Bit depth : 16 bits
    Compression mode : Lossy
    Stream size : 133 MiB (9%)
    Title : Авторский, А. Алексеев
    Language : Russian
    Default : Yes
    Forced : No
    Audio #2
    ID : 3
    Format : AC-3
    Format/Info : Audio Coding 3
    Mode extension : CM (complete main)
    Format settings, Endianness : Big
    Codec ID : A_AC3
    Duration : 1h 36mn
    Bit rate mode : Constant
    Bit rate : 192 Kbps
    Channel(s) : 2 channels
    Channel positions : Front: L R
    Sampling rate : 48.0 KHz
    Bit depth : 16 bits
    Compression mode : Lossy
    Stream size : 133 MiB (9%)
    Title : Оригинал
    Language : English
    Default : No
    Forced : No

    Скриншоты для ознакомления




    Все одноименные релизы в Клубе
    Время раздачи: с 13: 00 до 01: 00 МСК, выходные круглосуточно (до появления первых 3-5 скачавших)

    Грохот барабанов/A Thunder of Drums (1961) DVDRip [H.264] [AVO]
    загрузка...
    Рейтинг →
     (голосов: 1, оценка 4/5, голосовать можно 1 раз )

    Другие торренты по теме:



      Комментарии (0):

      Информация

      Информация

        Посетители, находящиеся в группе Гости, не могут оставлять комментарии в данной новости.

        ↓ Меню




        ↓ Опрос

        Вы добавили сайт в закладки?
        Да
        Нет


        Top 10 за месяц (Фильмы)