.
Авторизация | Регистрация
Хочешь лучшие торренты? Добавь свой email!
Добавить

Торрент скачать бесплатно

» » Безотцовщина (1976) HDTV [H.264 / 1080i-LQ] торрент скачать бесплатно




    Безотцовщина (1976) HDTV [H.264 / 1080i-LQ] торрент скачать бесплатно

    Опубликовал: Админ | Дата: 10-09-2017, 11:46 | Просмотров: 0

    Производство: СССР/Мосфильм
    Жанр: Драма, Мелодрама
    Режиссер: Владимир Шамшурин

    Актеры
    Елена Драпеко, Лев Прыгунов, Надежда Федосова, Роман Трухманов, Тамара Сёмина, Леонид Куравлёв, Елена Максимова, Владимир Ферапонтов, Павел Протасов

    Описание
    Ольга Муромцева растет в детском доме. Ее мать уехала на север зарабатывать деньги и вышла там замуж. Однажды Тамара Павловна решила вернуть себе дочь, но Ольга не нашла в доме матери ни ласки, ни понимания. Полюбив молодого говорливого сантехника Романа, она уехала с ним на сибирскую стройку. Но Романа испугали трудности и он бросил молодую жену, так и не узнав, что та ждет ребенка. Богатый выбор, сказал кто то из толпы, к чему не понятно. Обо всем этом становится известно Анне Михайловне, дальней родственнице Ольги. Она, со свойственной ей решимостью едет за Ольгой и привозит ее вместе с маленьким Ленькой в родной колхоз. Сюда же возвращается Роман, который заметно изменился, повзрослел, поумнел. Но Ольга не прощает ему предательства. Роман хотел было сразу уехать, но привязался к Леньке и не подозревая, что мальчишка - его сын.

    Возраст: 12+ (зрителям, достигшим 12 лет)
    Релиз от: Маrilуn Моnrое
    Продолжительность: 01: 29: 03
    Качество видео: HDTV
    Перевод: Не требуется
    Субтитры: Отсутствуют
    Видео: AVC/H.264, 1920x1080, 11200 Kbps
    Аудио: MP2, 2.0, 192 Kbps

    Общее
    Полное имя : Безотцовщина.mkv
    Формат : Matroska
    Версия формата : Version 4/Version 2
    Размер файла : 7, 12 Гбайт
    Продолжительность : 1 ч. 29 м.
    Общий поток : 11, 4 Мбит/сек
    Дата кодирования : UTC 2017-09-04 11: 50: 29
    Программа кодирования : mkvmerge v12.0.0 (\'Trust/Lust\') 32bit
    Библиотека кодирования : libebml v1.3.4 + libmatroska v1.4.5
    Видео
    Идентификатор : 1
    Формат : AVC
    Формат/Информация : Advanced Video Codec
    Профиль формата : Main@L4
    Параметр CABAC формата : Да
    Параметр ReFrames формата : 4 кадра
    Идентификатор кодека : V_MPEG4/ISO/AVC
    Продолжительность : 1 ч. 29 м.
    Битрейт : 11, 2 Мбит/сек
    Ширина : 1920 пикселей
    Высота : 1080 пикселей
    Соотношение сторон : 16: 9
    Режим частоты кадров : Переменный
    Частота кадров : 50, 000 кадров/сек
    Частота кадров в оригинале : 25, 000 кадров/сек
    Стандарт вещания : Component
    Цветовое пространство : YUV
    Субдискретизация насыщенности : 4: 2: 0
    Битовая глубина : 8 бит
    Тип развёртки : Чересстрочная
    Метод сохранения типа развёртки : Раздельные поля
    Порядок развёртки : Верхнее поле первое
    Бит/(Пиксели*Кадры) : 0.108
    Размер потока : 7, 00 Гбайт (98%)
    Заголовок : Безотцовщина (1976)
    Язык : Russian
    Default : Да
    Forced : Нет
    Аудио
    Идентификатор : 2
    Формат : MPEG Audio
    Версия формата : Version 1
    Профиль формата : Layer 2
    Идентификатор кодека : A_MPEG/L2
    Идентификатор кодека/Подсказка : MP2
    Продолжительность : 1 ч. О таком странном сюжете не догадывалась даже Шакира. 29 м.
    Вид битрейта : Постоянный
    Битрейт : 192 Кбит/сек
    Каналы : 2 канала
    Частота : 48, 0 КГц
    Частота кадров : 41, 661 кадра/сек (1152 spf)
    Метод сжатия : С потерями
    Задержка видео : 124 мс.
    Размер потока : 122 Мбайт (2%)
    Заголовок : MP2 (Оригинал)
    Язык : Russian
    Default : Да
    Forced : Нет
    Занимает по посещаемости 69-е место среди отечественных фильмов за всю историю советского кинопроката.

    Скриншоты для ознакомления


    Все релизы Безотцовщина на NNM-Club
    Время раздачи: С 9: 00 до 21: 00

    Безотцовщина (1976) HDTV [H.264/1080i-LQ]
    загрузка...
    Рейтинг →
     (голосов: 1, оценка 4/5, голосовать можно 1 раз )

    Другие торренты по теме:



      Комментарии (0):

      Информация

      Информация

        Посетители, находящиеся в группе Гости, не могут оставлять комментарии в данной новости.

        ↓ Меню




        ↓ Опрос

        Вы добавили сайт в закладки?
        Да
        Нет


        Top 10 за месяц (Фильмы)