.
Авторизация | Регистрация
Хочешь лучшие торренты? Добавь свой email!
Добавить

Торрент скачать бесплатно

» » Каминг Аут (2017) WEBRip торрент скачать бесплатно




    Каминг Аут (2017) WEBRip торрент скачать бесплатно

    Опубликовал: Админ | Дата: 10-09-2017, 11:46 | Просмотров: 0

    Производство: Россия
    Жанр: Короткометражный
    Режиссер: Герман Полозов
    Продюсер: Константин Федянин

    Актеры
    Дамир Миркамилов, Вячеслав Гардер, Евгений Чистяков

    Описание

    Спустя пару недель после оформления ипотеки Андрей узнает, что может потерять свою работу начальника отдела маркетинга из-за нового одиозного законопроекта, который получил поддержку в госдуме.

    Дата российской премьеры: 20 августа 2017
    Продолжительность: 00: 14: 59
    Качество видео: WEBRip
    Субтитры: Отсутствуют
    Видео: Xvid, 720x304 (2.35: 1), ~1480 Kbps
    Аудио: AC3, 2 ch, 192 Kbps

    Общее
    Полное имя : D: Каминг Аут (2017).avi
    Формат : AVI
    Формат/Информация : Audio Video Interleave
    Размер файла : 180 Мбайт
    Продолжительность : 14 м. 59 с.
    Общий поток : 1682 Кбит/сек
    Программа кодирования : Lavf54.63.104
    Видео
    Идентификатор : 0
    Формат : xvid
    Идентификатор кодека : xvid
    Продолжительность : 14 м. 59 с.
    Битрейт : 1479 Кбит/сек
    Ширина : 720 пикселей
    Высота : 304 пикселя
    Соотношение сторон : 2, 35: 1
    Частота кадров : 24, 000 кадра/сек
    Тип развёртки : Прогрессивная
    Бит/(Пиксели*Кадры) : 0.282
    Размер потока : 159 Мбайт (88%)
    Аудио
    Идентификатор : 1
    Формат : AC-3
    Формат/Информация : Audio Coding 3
    Параметр Endianness формата : Big
    Идентификатор кодека : 2000
    Продолжительность : 14 м. 59 с.
    Вид битрейта : Постоянный
    Битрейт : 192 Кбит/сек
    Каналы : 2 канала
    Расположение каналов : Front: L R
    Частота : 48, 0 КГц
    Частота кадров : 31, 250 кадров/сек (1536 SPF)
    Битовая глубина : 16 бит
    Метод сжатия : С потерями
    Размер потока : 20, 6 Мбайт (11%)
    Выравнивание : Соединение по промежуткам
    Продолжительность промежутка : 32 мс. (0, 77 видеокадр)
    ServiceKind/String : Complete Main

    Скриншоты для ознакомления



    Все одноименные релизы в Клубе
    Время раздачи: 24/7 (круглосуточно) (до появления первых 3-5 скачавших)

    Каминг Аут (2017) WEBRip
    загрузка...
    Рейтинг →
     (голосов: 1, оценка 3/5, голосовать можно 1 раз )

    Другие торренты по теме:



      Комментарии (0):

      Информация

      Информация

        Посетители, находящиеся в группе Гости, не могут оставлять комментарии в данной новости.

        ↓ Меню




        ↓ Опрос

        Вы добавили сайт в закладки?
        Да
        Нет


        Top 10 за месяц (Фильмы)